<?xml version="1.0" standalone="no"?>
<!DOCTYPE svg PUBLIC "-//W3C//DTD SVG 1.1//EN" "http://www.w3.org/Graphics/SVG/1.1/DTD/svg11.dtd">
<svg xmlns="http://www.w3.org/2000/svg">
<defs >
<font id="PlayfairDisplay" horiz-adv-x="1140" ><font-face
    font-family="Playfair Display"
    units-per-em="2048"
    panose-1="0 0 5 0 0 0 0 0 0 0"
    ascent="2216"
    descent="-514"
    alphabetic="0" />
<glyph unicode=" " glyph-name="space" horiz-adv-x="510" />
<glyph unicode="!" glyph-name="exclam" horiz-adv-x="537" d="M250 569T238 734T200 1149T174 1487Q174 1546 200 1574T268 1602Q309 1602 335 1574T362 1487Q362 1398 339 1165T301 759T287 401H250Q250 569 238 734ZM303 233T333 216T381 168T399 102Q399 67
382 37T334 -11T268 -29Q233 -29 203 -11T155 37T137 102Q137 137 154 167T202 215T268 233Q303 233 333 216Z" />
<glyph unicode="&quot;" glyph-name="quotedbl" horiz-adv-x="610" d="M392 1033T375 1133T351 1285T344 1399Q344 1442 365 1467T418 1495Q450 1495 470 1470T491 1401Q491 1343 485 1293T461 1142T432 958H403Q392 1033 375 1133ZM169 1033T152 1133T128 1285T121
1399Q121 1442 142 1467T195 1495Q227 1495 247 1470T268 1401Q268 1343 262 1293T238 1142T209 958H180Q169 1033 152 1133Z" />
<glyph unicode="#" glyph-name="numbersign" horiz-adv-x="1305" d="M832 547H1133L1124 506H824L766 207H725L783 506H441L383 207H342L400 506H98L106 547H408L474 889H174L180 930H482L541 1233H582L523 930H865L924 1233H965L906 930H1206L1200 889H898L832
547ZM515 889L449 547H791L857 889H515Z" />
<glyph unicode="$" glyph-name="dollar" horiz-adv-x="1071" d="M763 730T833 671T945 536T987 360Q987 251 944 171T823 42T647 -22V-270H606V-27Q580 -29 553 -29Q512 -29 475 -25V-270H434V-19Q353 -3 272 47Q228 76 203 76Q184 76 174 55T158 -14H111Q119
98 119 477H166Q177 302 241 182T434 25V690Q334 752 268 809T161 942T121 1118Q121 1221 162 1295T274 1413T434 1468V1720H475V1472L506 1473Q561 1473 606 1464V1720H647V1454Q693 1439 756 1397Q800 1368 825 1368Q844 1368 854 1389T870 1458H918Q907 1345
907 1040H860Q851 1168 799 1269T647 1411V803Q763 730 833 671ZM567 1434T524 1434Q499 1434 475 1430V909Q468 914 606 828V1424Q567 1434 524 1434ZM361 1396T318 1337T274 1196Q274 1113 314 1053T434 937V1420Q361 1396 318 1337ZM506 12T539 12Q574 12 606
19V582Q560 614 485 659L475 665V17Q506 12 539 12ZM718 59T761 122T805 285Q805 366 765 429T647 553V31Q718 59 761 122Z" />
<glyph unicode="%" glyph-name="percent" horiz-adv-x="1520" d="M153 -86L1351 1688L1390 1661L192 -113L153 -86ZM468 1559T537 1520T644 1405T682 1225Q682 1123 643 1045T534 924T377 881Q286 881 217 920T110 1035T72 1214Q72 1315 111 1393T220 1515T377
1559Q468 1559 537 1520ZM215 1522T215 1217Q215 1071 259 995T381 918Q537 918 537 1221Q537 1369 494 1445T373 1522Q215 1522 215 1217ZM1230 649T1299 610T1406 495T1444 315Q1444 214 1405 136T1296 14T1139 -29Q1047 -29 979 10T872 125T834 305Q834 406
873 484T982 605T1139 649Q1230 649 1299 610ZM977 612T977 307Q977 161 1020 85T1143 8Q1298 8 1298 311Q1298 459 1256 535T1135 612Q977 612 977 307Z" />
<glyph unicode="&amp;" glyph-name="ampersand" horiz-adv-x="1714" d="M1459 1479T1527 1446T1634 1350T1673 1202Q1673 1104 1620 1032T1479 915Q1407 881 1175 808Q1290 760 1344 670T1399 461Q1399 334 1324 222T1106 40T774 -29Q595 -29 444 33T202 212T111
481Q111 616 178 709T330 850T489 918Q389 961 336 1032T283 1182Q283 1250 323 1308T441 1402T629 1438Q766 1438 842 1376Q880 1345 899 1308T918 1235Q918 1186 883 1156T803 1126Q759 1126 728 1154T696 1229Q696 1273 726 1305T805 1341Q796 1368 753 1387T649
1407Q542 1407 477 1343T412 1163Q412 1026 516 930Q587 942 643 942Q681 942 703 930T725 895Q725 877 710 867T668 856Q638 856 604 867T547 888T518 901Q252 822 252 565Q252 428 324 328T521 176T801 123Q947 123 1070 168T1266 299T1339 498Q1339 578 1296
662T1133 795Q951 738 897 717Q811 684 764 642T717 539Q717 489 746 452T820 395T905 375Q940 375 981 387T1028 420Q989 427 961 452T932 524Q932 572 964 601T1044 631Q1093 631 1123 601T1153 520Q1153 465 1116 425T1023 365T909 344Q847 344 789 370T693
450T655 584Q655 688 725 761T938 883Q978 896 1092 928T1289 987T1438 1044Q1535 1090 1574 1137T1614 1241Q1614 1298 1581 1345T1494 1420T1376 1448Q1324 1448 1315 1430Q1342 1416 1357 1390T1372 1335Q1372 1293 1338 1264T1257 1235Q1213 1235 1181 1261T1149
1337Q1149 1387 1183 1419T1268 1465T1374 1479Q1459 1479 1527 1446Z" />
<glyph unicode="&apos;" glyph-name="quotesingle" horiz-adv-x="387" d="M169 1033T152 1133T128 1285T121 1399Q121 1442 142 1467T195 1495Q227 1495 247 1470T268 1401Q268 1343 262 1293T238 1142T209 958H180Q169 1033 152 1133Z" />
<glyph unicode="(" glyph-name="parenleft" horiz-adv-x="602" d="M325 1455T208 1201T90 639Q90 331 207 77T541 -373L569 -346Q402 -151 332 84T262 639Q262 958 332 1193T569 1624L541 1651Q325 1455 208 1201Z" />
<glyph unicode=")" glyph-name="parenright" horiz-adv-x="602" d="M277 1455T394 1201T512 639Q512 331 395 77T61 -373L33 -346Q200 -151 270 84T340 639Q340 958 270 1193T33 1624L61 1651Q277 1455 394 1201Z" />
<glyph unicode="*" glyph-name="asterisk" horiz-adv-x="1008" d="M887 929T887 879Q887 861 877 844Q859 812 820 812Q787 812 745 836Q714 854 683 882T597 965T510 1051Q522 1005 542 929T572 813T582 739Q581 682 558 656T502 629Q472 629 451 655T430 739Q430
774 438 814T467 930T500 1051Q466 1019 411 963T324 879T264 834Q224 811 191 811Q148 811 129 846Q120 862 120 877Q120 924 188 965Q218 982 256 994T369 1026T492 1060Q448 1073 372 1093T256 1126T186 1155Q121 1194 121 1243Q121 1261 131 1278Q147 1310
187 1310Q220 1310 262 1286Q293 1268 324 1240T409 1157T498 1069Q488 1112 467 1188T437 1306T428 1382Q428 1439 450 1466T504 1493Q535 1493 556 1466T578 1382Q578 1347 570 1307T541 1192T508 1071Q542 1103 597 1159T683 1243T743 1288Q785 1311 816 1311Q860
1311 879 1276Q888 1260 888 1245Q888 1196 819 1157Q789 1140 751 1128T638 1096T515 1062Q560 1049 636 1029T752 996T821 967Q887 929 887 879Z" />
<glyph unicode="+" glyph-name="plus" horiz-adv-x="1202" d="M1114 758V696H639V215H565V696H88V758H565V1241H639V758H1114Z" />
<glyph unicode="," glyph-name="comma" horiz-adv-x="535" d="M248 -219T294 -162T340 -45Q340 -20 334 -2Q299 -29 258 -29Q202 -29 165 6T127 102Q127 158 165 195T258 233Q337 233 379 168Q414 114 414 33Q414 -70 362 -151T203 -283L184 -246Q248 -219 294 -162Z" />
<glyph unicode="-" glyph-name="hyphen" horiz-adv-x="1022" d="M141 492V610H881V492H141Z" />
<glyph unicode="." glyph-name="period" horiz-adv-x="516" d="M293 233T323 216T371 168T389 102Q389 67 372 37T324 -11T258 -29Q223 -29 193 -11T145 37T127 102Q127 137 144 167T192 215T258 233Q293 233 323 216Z" />
<glyph unicode="/" glyph-name="slash" horiz-adv-x="762" d="M70 -29L627 1479H694L137 -29H70Z" />
<glyph unicode="0" glyph-name="zero" horiz-adv-x="1229" d="M768 1083T880 1016T1056 827T1120 545Q1120 382 1055 251T872 46T602 -29Q460 -29 347 38T170 227T106 512Q106 674 170 804T353 1008T625 1083Q768 1083 880 1016ZM518 1047T450 984T343 802T305
518Q305 342 347 228T460 61T621 8Q709 8 777 71T884 255T922 539Q922 714 880 828T767 994T606 1047Q518 1047 450 984Z" />
<glyph unicode="1" glyph-name="one" horiz-adv-x="758" d="M518 145T537 109T599 58T715 43V0Q491 8 432 8Q369 8 117 0V43Q226 43 280 79T334 211V707Q334 806 314 852T245 913T96 928V973Q246 976 343 999T518 1077V211Q518 145 537 109Z" />
<glyph unicode="2" glyph-name="two" horiz-adv-x="981" d="M150 939T249 1011T500 1083Q643 1083 725 1016T807 825Q807 704 727 602T495 363T293 158H709Q765 158 792 167T830 198T846 262H881Q881 74 889 -10Q843 0 584 0H104V35Q138 72 287 211T522 489T608
780Q608 1001 403 1001Q236 1001 129 809L96 827Q150 939 249 1011Z" />
<glyph unicode="3" glyph-name="three" horiz-adv-x="924" d="M208 1083T465 1083Q550 1083 617 1055T722 974T760 850Q760 774 718 707T606 591T455 512Q555 510 641 475T780 371T834 201Q834 52 721 -64T432 -245T76 -309V-272Q221 -269 350 -213T559 -50T639
201Q639 280 613 343T537 444T422 487Q413 483 390 474T352 461T326 457Q293 457 293 483Q293 501 308 511T346 522Q359 522 380 519T418 514Q498 575 536 651T575 809Q575 903 529 948T397 993Q311 993 241 948T125 811L90 827Q208 1083 465 1083Z" />
<glyph unicode="4" glyph-name="four" horiz-adv-x="1012" d="M930 180T938 100Q903 109 733 110V-289H569V111H35V154L700 1083H733V248H758Q814 248 841 257T879 288T895 352H930Q930 180 938 100ZM569 832L156 248H569V832Z" />
<glyph unicode="5" glyph-name="five" horiz-adv-x="850" d="M684 949T692 858Q648 868 408 868H190L166 473Q222 502 276 518T406 535Q526 535 607 495T728 383T768 219Q768 67 669 -52T412 -237T92 -303V-266Q217 -265 327 -212T505 -54T573 199Q573 329 506
401T315 473Q265 473 230 465T147 438L127 451L166 1061Q207 1053 276 1053H508Q564 1053 591 1062T628 1093T645 1157H684Q684 949 692 858Z" />
<glyph unicode="6" glyph-name="six" horiz-adv-x="1059" d="M690 1400T591 1330T415 1113T318 729Q364 816 447 856T612 897Q710 897 794 844T930 690T981 451Q981 302 921 193T758 28T530 -29Q400 -29 307 39T163 239T113 553Q113 840 222 1039T489 1344T807
1481L815 1440Q690 1400 591 1330ZM615 12T667 56T750 195T782 436Q782 644 721 741T561 838Q489 838 419 796T314 661Q311 611 311 557Q311 354 345 233T434 62T551 12Q615 12 667 56Z" />
<glyph unicode="7" glyph-name="seven" horiz-adv-x="831" d="M785 939T680 737T517 355T461 -37Q461 -73 465 -126T469 -199Q469 -245 443 -274T373 -303Q328 -303 305 -270T281 -188Q281 37 368 238T573 633T721 881H236Q180 881 153 872T115 841T98 776H63Q63
978 55 1063Q101 1053 360 1053H815V1010Q785 939 680 737Z" />
<glyph unicode="8" glyph-name="eight" horiz-adv-x="1065" d="M740 738T804 681T915 544T961 362Q961 247 904 158T746 20T518 -29Q406 -29 313 10T163 126T106 315Q106 457 196 568T435 752Q353 818 298 875T209 1003T174 1159Q174 1253 223 1325T358 1438T549
1479Q643 1479 720 1447T842 1351T887 1198Q887 1088 820 996T627 820Q740 738 804 681ZM472 1442T428 1415T359 1339T334 1223Q334 1142 368 1076T458 958T596 843Q723 964 723 1171Q723 1295 672 1368T526 1442Q472 1442 428 1415ZM600 8T658 39T751 131T786
276Q786 371 742 449T638 583T466 728Q287 597 287 346Q287 201 346 105T530 8Q600 8 658 39Z" />
<glyph unicode="9" glyph-name="nine" horiz-adv-x="1042" d="M359 -229T453 -172T623 2T729 307Q680 230 601 194T444 158Q347 158 263 211T127 365T76 604Q76 753 136 861T299 1026T526 1083Q656 1083 750 1020T894 835T944 543Q944 282 835 100T566 -179T250
-303L242 -262Q359 -229 453 -172ZM565 217T633 255T737 378Q745 454 745 539Q745 726 711 838T623 996T506 1042Q442 1042 390 998T306 859T274 618Q274 410 335 314T496 217Q565 217 633 255Z" />
<glyph unicode=":" glyph-name="colon" horiz-adv-x="545" d="M307 233T337 216T385 168T403 102Q403 67 386 37T338 -11T272 -29Q237 -29 207 -11T159 37T141 102Q141 137 158 167T206 215T272 233Q307 233 337 216ZM307 1081T337 1064T385 1016T403 950Q403
915 386 885T338 837T272 819Q237 819 207 837T159 885T141 950Q141 985 158 1015T206 1063T272 1081Q307 1081 337 1064Z" />
<glyph unicode=";" glyph-name="semicolon" horiz-adv-x="584" d="M271 -219T317 -162T363 -45Q363 -20 357 -2Q322 -29 281 -29Q225 -29 188 6T150 102Q150 158 188 195T281 233Q360 233 402 168Q437 114 437 33Q437 -70 385 -151T226 -283L207 -246Q271 -219
317 -162ZM330 1081T360 1064T408 1016T426 950Q426 915 409 885T361 837T295 819Q260 819 230 837T182 885T164 950Q164 985 181 1015T229 1063T295 1081Q330 1081 360 1064Z" />
<glyph unicode="&lt;" glyph-name="less" horiz-adv-x="1245" d="M256 727L1094 336L1059 262L61 727L1059 1192L1094 1118L256 727Z" />
<glyph unicode="=" glyph-name="equal" horiz-adv-x="1325" d="M150 840V901H1176V840H150ZM150 553V614H1176V553H150Z" />
<glyph unicode="&gt;" glyph-name="greater" horiz-adv-x="1245" d="M989 727L151 336L186 262L1184 727L186 1192L151 1118L989 727Z" />
<glyph unicode="?" glyph-name="question" horiz-adv-x="940" d="M499 845T569 905T663 1035T688 1194Q688 1380 612 1470T401 1561Q342 1561 288 1544T201 1487Q240 1479 263 1452T287 1382Q287 1332 255 1302T174 1272Q127 1272 97 1302T66 1380Q66 1463 162
1528Q270 1602 440 1602Q568 1602 665 1558T816 1430T870 1233Q870 1065 747 949T410 778V479H369V797Q499 845 569 905ZM426 233T456 216T504 168T522 102Q522 67 505 37T457 -11T391 -29Q356 -29 326 -11T278 37T260 102Q260 137 277 167T325 215T391 233Q426
233 456 216Z" />
<glyph unicode="@" glyph-name="at" horiz-adv-x="1798" d="M1113 -265T1000 -297T754 -330Q558 -330 412 -264T183 -58T100 293Q100 566 233 815T594 1216T1090 1368Q1275 1368 1418 1309T1645 1123T1729 805Q1729 586 1638 415T1408 148T1135 53Q987 53 987
186Q987 219 994 252T1008 308T1018 340V342Q960 193 884 123T702 53Q592 53 542 120T492 301Q492 453 565 612T752 875T979 979Q1104 979 1127 870L1143 950Q1260 950 1327 979L1155 227Q1142 185 1142 157Q1142 128 1156 116T1202 104Q1289 104 1405 190T1604
437T1688 807Q1688 989 1609 1106T1395 1277T1092 1331Q845 1331 626 1189T274 808T141 297Q141 93 219 -39T435 -232T756 -293Q992 -293 1178 -182L1192 -209Q1113 -265 1000 -297ZM1109 872T1078 902T987 932Q902 932 828 839T710 602T666 313Q666 115 772 115Q824
115 878 168T980 321T1062 556L1113 805Q1109 872 1078 902Z" />
<glyph unicode="A" glyph-name="A" horiz-adv-x="1290" d="M1211 45T1303 41V0Q1219 6 1083 6Q908 6 821 0V41Q899 44 932 60T966 117Q966 152 942 213L816 549H322L238 332Q197 228 197 164Q197 99 240 71T375 41V0Q258 6 139 6Q47 6 -14 0V41Q88 64 147 219L629
1460H662L1161 172Q1211 45 1303 41ZM572 1201L337 590H801L572 1201Z" />
<glyph unicode="B" glyph-name="B" horiz-adv-x="1276" d="M992 736T1088 637T1184 397Q1184 281 1125 191T954 51T692 0Q651 0 548 3T340 6Q172 6 86 0V41Q160 44 193 57T239 105T252 217V1233Q252 1310 240 1345T194 1393T86 1409V1450Q171 1444 336 1444Q416
1444 512 1446T645 1448Q785 1448 882 1408T1028 1295T1077 1126Q1077 1008 1003 914T766 770V766Q992 736 1088 637ZM747 770T814 861T881 1104Q881 1258 813 1333T594 1409Q530 1409 498 1395T454 1343T442 1233V770H580Q747 770 814 861ZM442 143T454 108T498
60T596 47Q979 47 979 406Q979 567 892 651T614 735H442V217Q442 143 454 108Z" />
<glyph unicode="C" glyph-name="C" horiz-adv-x="1409" d="M1224 64T1213 92T1179 121Q1163 121 1137 104Q1076 61 1025 34T907 -11T758 -29Q563 -29 417 59T190 314T109 713Q109 939 192 1113T423 1383T760 1479Q882 1479 968 1444T1137 1346Q1159 1328 1177
1328Q1219 1328 1229 1450H1276Q1268 1317 1268 979H1221Q1206 1071 1194 1122T1164 1208T1118 1282Q1056 1362 961 1402T756 1442Q623 1442 523 1354T368 1103T313 721Q313 498 373 338T538 95T776 12Q878 12 975 51T1126 168Q1168 224 1186 289T1221 492H1268Q1268
139 1276 0H1229Q1224 64 1213 92Z" />
<glyph unicode="D" glyph-name="D" horiz-adv-x="1481" d="M196 1443T286 1443L336 1444Q618 1450 645 1450Q1007 1450 1187 1269T1368 741Q1368 518 1281 351T1026 92T627 0Q599 0 494 3T340 6Q172 6 86 0V41Q160 44 193 57T239 105T252 217V1233Q252 1310 240
1345T194 1393T86 1409V1450Q196 1443 286 1443ZM442 139T454 103T498 52T596 37Q814 37 938 116T1112 346T1163 733Q1163 969 1108 1117T929 1339T594 1413Q530 1413 498 1399T454 1347T442 1237V213Q442 139 454 103Z" />
<glyph unicode="E" glyph-name="E" horiz-adv-x="1247" d="M1135 355T1135 262Q1135 146 1149 0Q1010 6 680 6Q287 6 86 0V41Q160 44 193 57T239 105T252 217V1233Q252 1310 240 1345T194 1393T86 1409V1450Q287 1444 680 1444Q981 1444 1108 1450Q1094 1316 1094
1208Q1094 1128 1100 1081H1053Q1038 1214 1016 1279T940 1373T778 1403H608Q534 1403 501 1391T455 1345T442 1233V750H578Q681 750 715 811T757 937T768 1020H815Q808 919 808 827L809 729Q809 625 821 438H774Q772 452 763 537T707 665T578 709H442V217Q442
140 454 106T500 59T608 47H758Q886 47 952 81T1048 190T1094 410H1141Q1135 355 1135 262Z" />
<glyph unicode="F" glyph-name="F" horiz-adv-x="1165" d="M287 1444T680 1444Q981 1444 1108 1450Q1094 1304 1094 1188Q1094 1085 1100 1020H1053Q1037 1179 1012 1255T926 1367T737 1403H608Q534 1403 501 1391T455 1345T442 1233V729H592Q695 729 729 790T771
916T782 999H829Q822 899 822 806L823 709Q823 601 836 418H788Q786 432 777 517T721 645T592 688H442V217Q442 140 458 105T516 57T649 41V0Q543 6 348 6Q172 6 86 0V41Q160 44 193 57T239 105T252 217V1233Q252 1310 240 1345T194 1393T86 1409V1450Q287 1444
680 1444Z" />
<glyph unicode="G" glyph-name="G" horiz-adv-x="1440" d="M1223 42T1208 79T1169 117Q1156 117 1144 111T1102 82Q1030 27 954 -1T782 -29Q572 -29 421 58T191 309T111 700Q111 935 195 1111T430 1383T770 1479Q853 1479 917 1462T1029 1417T1139 1346Q1165 1325
1180 1325Q1219 1325 1231 1450H1278Q1270 1317 1270 979H1223Q1205 1089 1184 1159T1120 1282Q1060 1356 965 1399T766 1442Q631 1442 529 1354T371 1104T315 723Q315 477 367 320T527 88T803 12Q926 12 1016 76Q1053 101 1064 124T1075 188V385Q1075 470 1059
509T1001 563T868 582V623Q969 616 1157 616Q1301 616 1370 623V582Q1322 578 1302 566T1274 519T1266 406V0H1225Q1223 42 1208 79Z" />
<glyph unicode="H" glyph-name="H" horiz-adv-x="1550" d="M1390 1406T1357 1393T1311 1345T1298 1233V217Q1298 140 1310 105T1356 57T1464 41V0Q1379 6 1202 6Q1038 6 942 0V41Q1016 44 1049 57T1095 105T1108 217V709H442V217Q442 140 454 105T500 57T608 41V0Q514
6 348 6Q172 6 86 0V41Q160 44 193 57T239 105T252 217V1233Q252 1310 240 1345T194 1393T86 1409V1450Q171 1444 348 1444Q514 1444 608 1450V1409Q534 1406 501 1393T455 1345T442 1233V750H1108V1233Q1108 1310 1096 1345T1050 1393T942 1409V1450Q1038 1444
1202 1444Q1378 1444 1464 1450V1409Q1390 1406 1357 1393Z" />
<glyph unicode="I" glyph-name="I" horiz-adv-x="694" d="M534 1406T501 1393T455 1345T442 1233V217Q442 140 454 105T500 57T608 41V0Q514 6 348 6Q172 6 86 0V41Q160 44 193 57T239 105T252 217V1233Q252 1310 240 1345T194 1393T86 1409V1450Q171 1444 348
1444Q514 1444 608 1450V1409Q534 1406 501 1393Z" />
<glyph unicode="J" glyph-name="J" horiz-adv-x="668" d="M522 1406T489 1393T443 1345T430 1233V483Q430 309 424 175T395 -51Q372 -147 314 -222T167 -341T-37 -385Q-137 -385 -209 -348Q-307 -297 -307 -207Q-307 -159 -277 -129T-199 -98Q-150 -98 -118 -128T-86
-209Q-86 -252 -109 -278T-172 -313Q-154 -331 -116 -338T-41 -346Q48 -346 112 -300T205 -172Q226 -108 233 -13T240 297V1233Q240 1310 228 1345T182 1393T74 1409V1450Q159 1444 336 1444Q500 1444 596 1450V1409Q522 1406 489 1393Z" />
<glyph unicode="K" glyph-name="K" horiz-adv-x="1341" d="M1193 114T1235 85T1339 41V0Q1242 6 1094 6Q983 6 883 0V41Q931 43 954 53T977 84Q977 103 956 133L657 584Q616 647 586 677T525 718T442 733V217Q442 140 454 105T500 57T608 41V0Q514 6 348 6Q172
6 86 0V41Q160 44 193 57T239 105T252 217V1233Q252 1310 240 1345T194 1393T86 1409V1450Q171 1444 348 1444Q514 1444 608 1450V1409Q534 1406 501 1393T455 1345T442 1233V774Q591 780 676 889L872 1139Q977 1272 977 1335Q977 1406 850 1409V1450Q967 1444
1085 1444Q1199 1444 1260 1450V1409Q1192 1399 1133 1365T1018 1260L684 832L1159 166Q1193 114 1235 85Z" />
<glyph unicode="L" glyph-name="L" horiz-adv-x="1204" d="M534 1406T501 1393T455 1345T442 1233V217Q442 140 454 106T500 59T608 47H758Q886 47 952 83T1048 198T1094 430H1141Q1135 366 1135 262Q1135 146 1149 0Q1010 6 680 6Q287 6 86 0V41Q160 44 193 57T239
105T252 217V1233Q252 1310 240 1345T194 1393T86 1409V1450Q171 1444 348 1444Q514 1444 608 1450V1409Q534 1406 501 1393Z" />
<glyph unicode="M" glyph-name="M" horiz-adv-x="1784" d="M1624 1406T1591 1393T1545 1345T1532 1233V217Q1532 140 1544 105T1590 57T1698 41V0Q1602 6 1438 6Q1262 6 1176 0V41Q1250 44 1283 57T1328 105T1341 217V1313L848 -10H815L299 1319V238Q299 159 313
119T365 62T485 41V0Q412 6 276 6Q154 6 86 0V41Q157 44 191 61T239 119T252 238V1233Q252 1310 240 1345T194 1393T86 1409V1450Q153 1444 276 1444Q384 1444 451 1450L901 262L1341 1444H1438Q1602 1444 1698 1450V1409Q1624 1406 1591 1393Z" />
<glyph unicode="N" glyph-name="N" horiz-adv-x="1446" d="M1301 1406T1267 1389T1219 1331T1206 1212V-10H1159L299 1319V238Q299 159 313 119T365 62T485 41V0Q412 6 276 6Q154 6 86 0V41Q157 44 191 61T239 119T252 238V1233Q252 1310 240 1345T194 1393T86
1409V1450Q153 1444 276 1444Q368 1444 436 1450L1159 336V1212Q1159 1291 1146 1331T1093 1388T973 1409V1450Q1046 1444 1182 1444Q1304 1444 1372 1450V1409Q1301 1406 1267 1389Z" />
<glyph unicode="O" glyph-name="O" horiz-adv-x="1518" d="M955 1479T1101 1391T1328 1136T1409 737Q1409 511 1326 337T1095 67T758 -29Q563 -29 417 59T190 314T109 713Q109 939 192 1113T423 1383T760 1479Q955 1479 1101 1391ZM621 1442T521 1351T367 1096T313
721Q313 508 373 346T536 96T766 8Q897 8 996 99T1150 354T1204 729Q1204 942 1144 1104T981 1354T752 1442Q621 1442 521 1351Z" />
<glyph unicode="P" glyph-name="P" horiz-adv-x="1198" d="M442 217Q442 140 458 105T516 57T649 41V0Q543 6 348 6Q172 6 86 0V41Q160 44 193 57T239 105T252 217V1233Q252 1310 240 1345T194 1393T86 1409V1450Q171 1444 336 1444Q416 1444 512 1446T645 1448Q806
1448 917 1398T1083 1256T1139 1044Q1139 932 1089 828T919 655T600 586H442V217ZM780 627T857 734T934 1022Q934 1154 900 1239T792 1366T594 1409Q530 1409 498 1395T454 1343T442 1233V627H580Q780 627 857 734Z" />
<glyph unicode="Q" glyph-name="Q" horiz-adv-x="1518" d="M1517 -216T1434 -293Q1332 -385 1157 -385Q1062 -385 974 -357T737 -263T498 -168Q484 -164 472 -161T449 -154Q359 -184 279 -184Q184 -184 184 -143Q184 -100 295 -100Q369 -100 449 -117Q488 -107
520 -94T601 -59T680 -25Q507 -8 378 84T179 337T109 713Q109 939 192 1113T423 1383T760 1479Q955 1479 1101 1391T1328 1136T1409 737Q1409 524 1335 357T1128 90T823 -26V-27Q773 -33 735 -45T633 -85T520 -127Q745 -172 904 -198T1169 -225Q1315 -225 1400
-183T1532 -47L1563 -59Q1517 -216 1434 -293ZM313 508T373 346T536 96T766 8Q897 8 996 99T1150 354T1204 729Q1204 942 1144 1104T981 1354T752 1442Q621 1442 521 1351T367 1096T313 721Q313 508 373 346Z" />
<glyph unicode="R" glyph-name="R" horiz-adv-x="1327" d="M1304 33T1257 2T1133 -29Q1049 -29 995 20T913 193L868 397Q844 504 823 561T758 653T637 688H442V217Q442 140 454 105T500 57T608 41V0Q514 6 348 6Q172 6 86 0V41Q160 44 193 57T239 105T252 217V1233Q252
1310 240 1345T194 1393T86 1409V1450Q172 1444 336 1444Q416 1444 512 1446T645 1448Q805 1448 916 1402T1083 1275T1139 1092Q1139 1012 1102 931T975 785T741 698L766 694Q858 679 913 649T1000 565T1053 424L1104 215Q1117 152 1130 117T1162 64T1209 47Q1243
47 1265 64T1321 125L1352 102Q1304 33 1257 2ZM718 729T796 773T904 891T934 1069Q934 1237 854 1323T594 1409Q530 1409 498 1395T454 1343T442 1233V729H580Q718 729 796 773Z" />
<glyph unicode="S" glyph-name="S" horiz-adv-x="1106" d="M198 269T286 141T557 12Q627 12 687 41T785 131T823 285Q823 364 785 426T680 541T504 659Q382 732 308 790T187 928T139 1118Q139 1234 191 1314T331 1433T524 1473Q587 1473 632 1463T708 1437T774
1397Q820 1368 844 1368Q863 1368 873 1389T889 1458H936Q926 1338 926 1040H879Q871 1145 834 1234T724 1378T543 1434Q471 1434 414 1404T325 1320T293 1196Q293 1085 360 1017T516 895T637 821Q766 740 841 681T961 543T1006 360Q1006 234 948 147T792 15T571
-29Q473 -29 410 -9T291 47Q245 76 221 76Q202 76 192 55T176 -14H129Q137 98 137 477H184Q198 269 286 141Z" />
<glyph unicode="T" glyph-name="T" horiz-adv-x="1272" d="M74 1085T74 1188Q74 1308 59 1450Q229 1444 637 1444Q1042 1444 1212 1450Q1198 1304 1198 1188Q1198 1085 1204 1020H1157Q1141 1179 1117 1255T1031 1367T842 1403H731V238Q731 153 747 114T805 59T938
41V0Q830 6 637 6Q432 6 334 0V41Q425 44 467 59T525 113T541 238V1403H430Q303 1403 242 1368T156 1256T115 1020H68Q74 1085 74 1188Z" />
<glyph unicode="U" glyph-name="U" horiz-adv-x="1397" d="M1270 1406T1236 1389T1189 1331T1176 1212V596Q1176 449 1157 344T1092 162Q1040 74 941 23T717 -29Q492 -29 373 82Q312 139 280 202T234 356T221 590V1233Q221 1310 209 1345T163 1393T55 1409V1450Q142
1444 317 1444Q482 1444 578 1450V1409Q504 1406 471 1393T425 1345T412 1233V555Q412 391 434 283T526 109T735 43Q952 43 1040 182T1128 573V1212Q1128 1288 1111 1329T1054 1388T942 1409V1450Q1016 1444 1151 1444Q1274 1444 1341 1450V1409Q1270 1406 1236
1389Z" />
<glyph unicode="V" glyph-name="V" horiz-adv-x="1290" d="M1032 1444T1151 1444Q1243 1444 1305 1450V1409Q1202 1386 1143 1231L662 -10H645H629L129 1278Q79 1405 -12 1409V1450Q71 1444 207 1444Q383 1444 469 1450V1409Q391 1406 358 1390T324 1333Q324 1299
348 1237L719 253L1053 1118Q1094 1224 1094 1285Q1094 1350 1050 1378T915 1409V1450Q1032 1444 1151 1444Z" />
<glyph unicode="W" glyph-name="W" horiz-adv-x="1853" d="M1585 1444T1704 1444Q1796 1444 1858 1450V1409Q1744 1384 1696 1231L1309 -10H1292H1276L920 1045L594 -10H578H561L127 1278Q83 1404 -14 1409V1450Q68 1444 205 1444Q352 1444 426 1450V1409Q372
1405 349 1389T326 1338Q326 1305 348 1237L648 324L896 1117L842 1278Q800 1405 721 1409V1450Q795 1444 920 1444Q1095 1444 1182 1450V1409Q1129 1407 1101 1402T1058 1381T1042 1336Q1042 1302 1063 1237L1357 326L1610 1118Q1643 1222 1643 1283Q1643 1351
1602 1379T1468 1409V1450Q1585 1444 1704 1444Z" />
<glyph unicode="X" glyph-name="X" horiz-adv-x="1298" d="M1173 104T1192 84T1232 54T1284 43V0Q1144 8 1108 8Q1039 8 819 0V43Q899 43 932 50T965 76Q965 91 950 113L600 649L379 319Q301 203 301 139Q301 87 347 65T483 41V0Q367 6 207 6Q94 6 33 0V41Q94
50 149 96T264 229L573 690L172 1305Q146 1346 127 1366T87 1396T35 1407V1450Q175 1442 211 1442Q348 1442 500 1450V1407Q363 1407 363 1362Q363 1346 381 1317L700 829L901 1130Q990 1263 990 1327Q990 1370 951 1388T831 1409V1450Q948 1444 1067 1444Q1179
1444 1241 1450V1409Q1179 1400 1124 1354T1010 1221L723 793L1147 145Q1173 104 1192 84Z" />
<glyph unicode="Y" glyph-name="Y" horiz-adv-x="1210" d="M932 1444T1051 1444Q1143 1444 1204 1450V1409Q1163 1400 1124 1358T1040 1227L719 590V217Q719 140 731 105T777 57T885 41V0Q789 6 625 6Q449 6 362 0V41Q436 44 469 57T515 105T528 217V526L113 1292Q75
1361 48 1384T-6 1407V1450Q74 1444 174 1444Q373 1444 461 1450V1407Q317 1407 317 1328Q317 1298 338 1257L679 604L940 1124Q996 1237 996 1300Q996 1358 951 1382T815 1409V1450Q932 1444 1051 1444Z" />
<glyph unicode="Z" glyph-name="Z" horiz-adv-x="1217" d="M279 47H711Q839 47 905 83T1001 198T1047 430H1094Q1087 355 1087 262Q1087 156 1102 0Q950 6 592 6Q242 6 86 0V41L940 1403H510Q382 1403 316 1367T220 1252T174 1020H127Q133 1085 133 1188Q133 1304
119 1450Q270 1444 629 1444Q977 1444 1126 1450V1409L279 47Z" />
<glyph unicode="[" glyph-name="bracketleft" horiz-adv-x="606" d="M373 1542V-332H539V-371H188V1581H539V1542H373Z" />
<glyph unicode="\" glyph-name="backslash" horiz-adv-x="762" d="M692 -29L135 1479H68L625 -29H692Z" />
<glyph unicode="]" glyph-name="bracketright" horiz-adv-x="606" d="M233 1542V-332H67V-371H418V1581H67V1542H233Z" />
<glyph unicode="^" glyph-name="asciicircum" horiz-adv-x="1098" d="M616 963T718 857T950 688L934 659Q810 704 694 771T508 905Q450 838 357 771T164 659L147 688Q278 751 380 857T530 1081H567Q616 963 718 857Z" />
<glyph unicode="_" glyph-name="underscore" horiz-adv-x="1210" d="M141 -317V-235H1069V-317H141Z" />
<glyph unicode="`" glyph-name="grave" horiz-adv-x="457" d="M337 1286T291 1329T172 1436T70 1538Q42 1575 42 1608Q42 1642 70 1665Q89 1680 114 1680Q158 1680 193 1634Q222 1596 258 1527T328 1393T416 1245L393 1227Q337 1286 291 1329Z" />
<glyph unicode="a" glyph-name="a" horiz-adv-x="1020" d="M655 955T606 998T465 1042Q320 1042 262 969Q303 959 330 926T358 844Q358 792 326 763T238 733Q186 733 157 768T127 860Q127 940 223 1006Q273 1039 346 1061T510 1083Q594 1083 658 1063T758 1006Q805
958 822 895T840 719V150Q840 99 854 76T903 53Q928 53 949 64T995 96L1018 61Q982 34 958 19T903 -5T831 -14Q732 -14 694 35T655 168Q595 69 511 28T340 -14Q269 -14 210 10T116 86T80 215Q80 293 118 348T225 444T410 535Q430 543 508 575T620 639T655 709V836Q655
955 606 998ZM640 602T605 582T459 508Q400 480 359 451T289 371T260 248Q260 159 305 114T424 68Q560 68 655 223V625Q640 602 605 582Z" />
<glyph unicode="b" glyph-name="b" horiz-adv-x="1153" d="M394 968T478 1025T668 1083Q782 1083 869 1021T1007 833T1057 526Q1057 349 996 224T830 35T600 -29Q525 -29 454 1T330 91L184 -33L150 -18Q164 32 164 100V1358Q164 1453 130 1495T8 1538V1581Q73
1575 135 1575Q267 1575 348 1604V864Q394 968 478 1025ZM396 70T457 44T584 18Q722 18 790 142T858 526Q858 776 797 899T608 1022Q553 1022 501 993T409 906T348 767V120Q396 70 457 44Z" />
<glyph unicode="c" glyph-name="c" horiz-adv-x="995" d="M901 183T853 119T728 13T547 -29Q419 -29 316 37T154 226T94 514Q94 680 154 809T324 1011T571 1083Q709 1083 809 1018Q905 953 905 860Q905 806 875 776T797 745Q749 745 717 772T684 848Q684 892 708
921T770 961Q750 998 697 1022T586 1047Q511 1047 445 999T336 839T293 545Q293 290 375 175T588 59Q675 59 754 110T885 270L924 256Q901 183 853 119Z" />
<glyph unicode="d" glyph-name="d" horiz-adv-x="1190" d="M991 128T1025 86T1147 43V0Q1082 6 1020 6Q888 6 807 -23V159Q769 67 696 19T516 -29Q386 -29 292 33T148 219T98 526Q97 705 160 831T328 1020T561 1083Q639 1083 704 1054T807 962V1360Q807 1455 773
1497T651 1540V1583Q716 1577 778 1577Q910 1577 991 1606V223Q991 128 1025 86ZM750 1036T578 1036Q495 1036 432 980T332 809T297 526Q296 280 366 157T575 33Q628 33 675 60T757 140T807 269V878Q750 1036 578 1036Z" />
<glyph unicode="e" glyph-name="e" horiz-adv-x="1036" d="M924 174T872 112T741 10T565 -29Q419 -29 313 37T150 224T94 502Q94 680 151 811T312 1012T557 1083Q741 1083 840 972T940 633H300Q293 580 293 502Q293 367 337 266T454 111T606 57Q812 57 907 262L948
246Q924 174 872 112ZM747 774T726 859T660 994T549 1044Q486 1044 433 1004T344 880T297 672H743Q747 774 726 859Z" />
<glyph unicode="f" glyph-name="f" horiz-adv-x="680" d="M217 1175T227 1256T259 1395T322 1499Q362 1547 426 1574T565 1602Q670 1602 743 1546Q807 1494 807 1419Q807 1372 777 1342T698 1311Q651 1311 619 1341T586 1421Q586 1463 609 1490T672 1526Q666 1545
639 1558T571 1571Q480 1571 438 1495Q415 1454 408 1373T401 1106V1053H621V1012H401V211Q401 116 455 80T618 43V0Q366 8 303 8Q253 8 61 0V43Q119 43 152 56T201 101T217 190V1012H53V1053H217Q217 1175 227 1256Z" />
<glyph unicode="g" glyph-name="g" horiz-adv-x="1061" d="M891 225T957 180T1024 35Q1024 -63 961 -160T768 -321T451 -385Q344 -385 250 -364T97 -300T39 -197Q39 -127 112 -62T296 53H289Q211 53 148 86T84 209Q84 279 142 342T340 468Q250 503 200 576T150
760Q150 922 253 1002T528 1083Q608 1083 673 1065Q693 1179 745 1247Q800 1315 885 1315Q936 1315 964 1285T993 1208Q993 1166 965 1138T895 1110Q843 1110 820 1141T786 1239Q756 1212 731 1139Q716 1094 710 1054Q803 1020 855 947T907 760Q907 651 858 579T724
471T528 436Q445 436 377 455Q294 411 250 374T205 293Q205 259 228 242T303 225H784Q891 225 957 180ZM437 1047T390 982T342 760Q342 604 389 539T528 473Q620 473 667 538T715 760Q715 917 668 982T528 1047Q437 1047 390 982ZM280 19T244 -38T207 -154Q207
-220 251 -264T364 -329T506 -350Q597 -350 684 -318T827 -220T883 -61Q883 -21 870 3T822 40T727 53H346Q280 19 244 -38Z" />
<glyph unicode="h" glyph-name="h" horiz-adv-x="1204" d="M432 968T523 1025T729 1083Q872 1083 946 1006Q985 964 1001 903T1018 737V190Q1018 133 1033 101T1082 56T1174 43V0Q982 8 928 8Q870 8 698 0V43Q749 43 778 56T820 101T834 190V782Q834 856 822 906T774
987T668 1018Q585 1018 520 971T418 839T381 647V190Q381 133 394 101T436 56T516 43V0Q344 8 287 8Q229 8 41 0V43Q99 43 132 56T181 101T197 190V1358Q197 1453 163 1495T41 1538V1581Q106 1575 168 1575Q300 1575 381 1604V838Q432 968 523 1025Z" />
<glyph unicode="i" glyph-name="i" horiz-adv-x="600" d="M328 1567T358 1549T406 1501T424 1436Q424 1401 406 1371T358 1323T293 1305Q258 1305 228 1322T180 1370T162 1436Q162 1471 179 1501T227 1549T293 1567Q328 1567 358 1549ZM399 133T414 101T463 56T555
43V0Q367 8 307 8Q247 8 59 0V43Q117 43 150 56T199 101T215 190V831Q215 926 181 969T59 1012V1055Q123 1049 186 1049Q316 1049 399 1077V190Q399 133 414 101Z" />
<glyph unicode="j" glyph-name="j" horiz-adv-x="547" d="M307 1556T337 1539T385 1491T403 1425Q403 1390 386 1360T338 1312T272 1294Q237 1294 207 1312T159 1360T141 1425Q141 1460 159 1490T207 1538T272 1556Q307 1556 337 1539ZM385 69T363 -55T276 -260Q229
-321 163 -353T29 -385Q-43 -385 -86 -354Q-131 -320 -131 -260Q-131 -213 -102 -184T-25 -154Q24 -154 53 -179T82 -254Q82 -324 4 -352Q16 -354 39 -354Q110 -354 154 -307Q201 -248 201 -133V831Q201 926 167 969T45 1012V1055Q109 1049 172 1049Q302 1049 385
1077V236Q385 69 363 -55Z" />
<glyph unicode="k" glyph-name="k" horiz-adv-x="1126" d="M1007 98T1038 74T1112 43V0Q988 8 946 8Q891 8 719 0V43Q748 43 765 54T782 82Q782 96 770 113L535 457Q498 509 467 527T381 547V190Q381 133 394 101T436 56T516 43V0Q344 8 289 8Q229 8 41 0V43Q99
43 132 56T181 101T197 190V1360Q197 1455 163 1497T41 1540V1583Q106 1577 168 1577Q300 1577 381 1606V589Q441 597 481 616T557 674L709 831Q774 899 774 944Q774 980 733 997T623 1014V1055Q765 1047 854 1047Q950 1047 1032 1055V1014Q932 1005 848 918L599
656L969 150Q1007 98 1038 74Z" />
<glyph unicode="l" glyph-name="l" horiz-adv-x="586" d="M385 133T400 101T449 56T541 43V0Q353 8 293 8Q233 8 45 0V43Q103 43 136 56T185 101T201 190V1360Q201 1455 167 1497T45 1540V1583Q109 1577 172 1577Q304 1577 385 1606V190Q385 133 400 101Z" />
<glyph unicode="m" glyph-name="m" horiz-adv-x="1819" d="M1632 133T1647 101T1696 56T1788 43V0Q1600 8 1542 8Q1485 8 1313 0V43Q1364 43 1392 56T1434 101T1448 190V782Q1448 860 1439 908T1396 987T1292 1018Q1214 1018 1151 969T1052 835T1016 647V190Q1016
133 1031 101T1080 56T1171 43V0Q983 8 926 8Q868 8 696 0V43Q747 43 776 56T818 101T831 190V782Q831 860 822 908T779 987T676 1018Q597 1018 534 969T435 834T399 645V190Q399 133 412 101T455 56T535 43V0Q363 8 305 8Q247 8 59 0V43Q117 43 150 56T199 101T215
190V831Q215 926 181 969T59 1012V1055Q123 1049 186 1049Q316 1049 399 1077V836Q449 962 539 1022T735 1083Q874 1083 948 1006Q999 950 1011 841Q1062 970 1152 1026T1352 1083Q1491 1083 1565 1006Q1602 965 1617 902T1632 737V190Q1632 133 1647 101Z" />
<glyph unicode="n" glyph-name="n" horiz-adv-x="1223" d="M450 966T541 1024T748 1083Q891 1083 965 1006Q1003 964 1019 903T1036 737V190Q1036 133 1051 101T1100 56T1192 43V0Q1004 8 946 8Q889 8 717 0V43Q768 43 796 56T838 101T852 190V782Q852 856 841
906T793 987T686 1018Q602 1018 537 969T435 835T399 645V190Q399 133 412 101T455 56T535 43V0Q363 8 305 8Q247 8 59 0V43Q117 43 150 56T199 101T215 190V831Q215 926 181 969T59 1012V1055Q123 1049 186 1049Q316 1049 399 1077V836Q450 966 541 1024Z" />
<glyph unicode="o" glyph-name="o" horiz-adv-x="1122" d="M696 1083T800 1024T965 841T1026 526Q1026 336 966 212T801 30T561 -29Q426 -29 322 29T157 212T96 526Q96 716 156 840T321 1024T561 1083Q696 1083 800 1024ZM438 1042T367 916T295 526Q295 263 366
138T561 12Q684 12 755 137T827 526Q827 790 756 916T561 1042Q438 1042 367 916Z" />
<glyph unicode="p" glyph-name="p" horiz-adv-x="1190" d="M431 967T517 1025T713 1083Q822 1083 908 1024T1044 850T1094 575Q1094 418 1044 281T889 57T625 -29Q547 -29 484 1T385 82V-180Q385 -263 434 -295T582 -328V-371Q556 -370 466 -366T287 -362Q222
-362 153 -366T66 -371V-328Q141 -328 171 -301T201 -201V831Q201 926 167 969T45 1012V1055Q109 1049 172 1049Q302 1049 385 1077V861Q431 967 517 1025ZM415 89T470 54T602 18Q895 18 895 547Q895 1022 657 1022Q564 1022 491 956T385 763V150Q415 89 470 54Z"
/>
<glyph unicode="q" glyph-name="q" horiz-adv-x="1153" d="M989 -273T1019 -300T1124 -328V-371Q1106 -370 1037 -366T903 -362Q815 -362 725 -366T608 -371V-328Q707 -328 756 -296T805 -180V173Q764 76 689 24T518 -29Q398 -29 303 33T152 220T96 526Q96 707
153 832T310 1020T535 1083Q639 1083 709 1048T823 934Q932 1049 969 1087L1004 1073Q989 1023 989 954V-201Q989 -273 1019 -300ZM727 1036T551 1036Q427 1036 361 909T295 526Q295 281 367 157T578 33Q654 33 716 94T805 270V899Q727 1036 551 1036Z" />
<glyph unicode="r" glyph-name="r" horiz-adv-x="911" d="M422 885T465 945T569 1044T696 1083Q750 1083 792 1062T859 1003T883 922Q883 868 851 831T766 793Q721 793 689 821T657 899Q657 966 727 1010Q713 1030 684 1030Q603 1030 538 968T436 815T399 645V211Q399
116 453 80T616 43V0Q364 8 301 8Q247 8 59 0V43Q117 43 150 56T199 101T215 190V831Q215 926 181 969T59 1012V1055Q123 1049 186 1049Q316 1049 399 1077V821Q422 885 465 945Z" />
<glyph unicode="s" glyph-name="s" horiz-adv-x="913" d="M183 268T211 186T297 58T453 12Q498 12 539 31T608 94T635 207Q635 263 607 307T532 387T403 475Q302 539 249 580T158 680T121 819Q121 906 162 965T271 1054T424 1083Q496 1083 553 1060T647 1008Q669
991 683 991Q719 991 729 1081H776Q768 981 768 733H721Q699 868 634 956T442 1044Q368 1044 321 1003T274 887Q274 816 322 769T439 678T537 616Q631 555 688 508T781 399T817 258Q817 167 770 103T642 5T467 -29Q376 -29 305 0Q265 20 221 55Q213 63 202 63Q172
63 160 -14H113Q121 103 121 395H168Q183 268 211 186Z" />
<glyph unicode="t" glyph-name="t" horiz-adv-x="725" d="M692 1053V1012H389V219Q389 126 422 86T520 45Q584 45 629 96T705 264L745 254Q695 -29 479 -29Q410 -29 365 -13T285 39Q241 84 223 149T205 326V1012H8V1053H205V1366Q320 1369 389 1395V1053H692Z" />
<glyph unicode="u" glyph-name="u" horiz-adv-x="1190" d="M989 126T1023 84T1145 41V-2Q1081 4 1018 4Q886 4 805 -25V217Q755 91 666 31T469 -29Q331 -29 256 49Q219 89 204 153T188 317V831Q188 926 154 969T33 1012V1055Q97 1049 160 1049Q289 1049 373 1077V272Q373
194 382 146T425 68T528 37Q607 37 670 86T769 220T805 408V831Q805 926 771 969T649 1012V1055Q713 1049 776 1049Q906 1049 989 1077V221Q989 126 1023 84Z" />
<glyph unicode="v" glyph-name="v" horiz-adv-x="1001" d="M774 1049T840 1049Q930 1049 995 1055V1014Q954 1009 922 977T862 870L526 -10H492L115 897Q85 968 56 990T-4 1012V1055Q102 1047 176 1047Q333 1047 442 1055V1012Q391 1012 363 1009T316 990T297
942Q297 908 319 852L571 229L797 821Q819 877 819 916Q819 963 783 986T668 1014V1055Q774 1049 840 1049Z" />
<glyph unicode="w" glyph-name="w" horiz-adv-x="1577" d="M1351 1049T1415 1049Q1506 1049 1571 1055V1014Q1528 1009 1495 977T1438 870L1141 -10H1106L781 814L489 -10H455L119 897Q91 969 61 990T0 1012V1055Q86 1042 180 1042Q271 1042 446 1055V1012Q379
1012 347 1004T305 959T324 840L529 251L823 1063H870L1184 234L1376 821Q1395 881 1395 914Q1395 963 1360 986T1243 1014V1055Q1351 1049 1415 1049Z" />
<glyph unicode="x" glyph-name="x" horiz-adv-x="1063" d="M945 93T971 72T1036 43V0Q932 8 891 8Q821 8 649 0V43Q682 43 706 56T730 89Q730 99 721 113L488 453L338 258Q281 185 281 135Q281 51 432 41V0Q324 6 199 6Q108 6 43 0V41Q83 46 125 78T223 184L459
495L174 909Q146 950 127 970T91 1000T47 1012V1055Q155 1047 193 1047Q262 1047 434 1055V1012Q401 1012 378 1000T354 966Q354 954 362 942L581 623L723 821Q785 908 785 950Q785 979 757 994T668 1014V1055Q774 1049 840 1049Q930 1049 995 1055V1014Q912 1004
815 870L608 584L909 145Q945 93 971 72Z" />
<glyph unicode="y" glyph-name="y" horiz-adv-x="1032" d="M792 1049T856 1049Q947 1049 1012 1055V1014Q971 1009 939 977T879 870L543 -10L473 -188Q434 -289 385 -332Q327 -385 225 -385Q164 -385 125 -353T86 -262Q86 -213 115 -184T195 -154Q240 -154 269
-179T299 -250Q299 -311 244 -342Q248 -344 256 -344Q369 -344 430 -184L503 3L131 897Q96 968 62 990T-8 1012V1055Q88 1042 193 1042Q281 1042 459 1055V1012Q409 1012 381 1009T335 990T316 941Q316 904 342 840L589 228L815 821Q837 881 837 915Q837 963 801
986T684 1014V1055Q792 1049 856 1049Z" />
<glyph unicode="z" glyph-name="z" horiz-adv-x="975" d="M532 31Q658 31 731 109T817 360H864Q864 93 872 -8Q712 0 492 0Q296 0 78 -10L670 1024H444Q352 1024 293 991T202 886T160 694H113Q113 965 104 1063Q265 1055 485 1055Q681 1055 899 1065L307 31H532Z" />
<glyph unicode="{" glyph-name="braceleft" horiz-adv-x="623" d="M497 1561T465 1532T419 1415T406 1128Q406 954 367 848T264 690T113 612Q200 586 263 534T366 376T406 96Q406 -109 419 -199T464 -317T569 -346V-385Q435 -385 361 -343T254 -197T221 96Q221
293 208 396T162 544T66 594H55V631H66Q129 635 162 679T208 826T221 1128Q221 1311 254 1413T361 1558T569 1602V1563Q497 1561 465 1532Z" />
<glyph unicode="|" glyph-name="bar" horiz-adv-x="455" d="M186 -399V1757H268V-399H186Z" />
<glyph unicode="}" glyph-name="braceright" horiz-adv-x="623" d="M126 1561T158 1532T204 1415T217 1128Q217 954 256 848T359 690T510 612Q423 586 360 534T257 376T217 96Q217 -109 204 -199T159 -317T54 -346V-385Q188 -385 262 -343T369 -197T402 96Q402
293 415 396T461 544T557 594H568V631H557Q494 635 461 679T415 826T402 1128Q402 1311 369 1413T262 1558T54 1602V1563Q126 1561 158 1532Z" />
<glyph unicode="~" glyph-name="asciitilde" horiz-adv-x="1329" d="M160 596T200 645T304 721T440 748Q508 748 567 728T747 649T961 590Q1095 590 1145 709L1180 698Q1172 632 1131 583T1027 508T891 481Q823 481 764 501T584 580T371 639Q236 639 186 520L152
530Q160 596 200 645Z" />
<glyph unicode="&#xa0;" glyph-name="nbspace" horiz-adv-x="510" />
<glyph unicode="&#xa1;" glyph-name="exclamdown" horiz-adv-x="510" d="M291 1083T321 1066T369 1018T387 952Q387 917 370 887T322 839T256 821Q221 821 191 839T143 887T125 952Q125 987 142 1017T190 1065T256 1083Q291 1083 321 1066ZM272 509T284 369T322
17T348 -270Q348 -329 322 -357T254 -385Q213 -385 187 -357T160 -270Q160 -195 184 3T222 347T236 651H272Q272 509 284 369Z" />
<glyph unicode="&#xa2;" glyph-name="cent" horiz-adv-x="971" d="M877 186T832 123T713 18T543 -29V-371H498V-28Q376 -22 279 45T125 233T69 514Q69 670 123 794T274 993T498 1081V1450H543V1083H546Q684 1083 784 1018Q880 953 880 860Q880 806 850 776T772
745Q724 745 692 772T659 848Q659 892 683 921T745 961Q725 998 672 1022T561 1047L543 1046V60L563 59Q650 59 729 110T860 270L899 256Q877 186 832 123ZM398 1010T333 891T268 545Q268 324 330 208T498 67V1038Q398 1010 333 891Z" />
<glyph unicode="&#xa3;" glyph-name="sterling" horiz-adv-x="1233" d="M974 444T1033 411T1130 324T1167 199Q1167 140 1142 88T1066 3T944 -29Q878 -29 820 -4T671 75T530 147Q487 164 430 164Q372 164 317 143Q270 62 214 17T104 -29Q88 -29 80 -25T72 -8Q72
11 99 42T170 104T256 150Q270 216 274 294T279 528V608H121V649H279V813H121V854H279V899Q279 1507 733 1507Q854 1507 926 1452Q987 1403 987 1339Q987 1296 959 1268T891 1239Q854 1239 826 1265T797 1331Q797 1365 814 1390T864 1427Q860 1447 821 1462T737
1477Q615 1477 557 1406T484 1229T469 952V854H766V813H469V649H766V608H468Q464 486 433 391T336 180Q423 221 512 221Q581 221 670 191T813 145T932 129Q1001 129 1036 162T1071 246Q1071 315 1024 360T897 422L905 455Q974 444 1033 411Z" />
<glyph unicode="&#xa4;" glyph-name="currency" horiz-adv-x="1096" d="M850 858Q936 749 936 614Q936 476 850 371L940 283L883 223L793 313Q683 227 549 227Q410 227 305 311L217 223L158 283L246 371Q160 476 160 614Q160 753 248 860L158 950L215 1008L305
918Q412 1004 549 1004Q685 1004 793 915L885 1008L942 950L850 858ZM467 928T397 885T285 770T244 614Q244 530 285 459T397 345T549 303Q631 303 700 345T811 458T852 614Q852 697 811 769T700 884T549 928Q467 928 397 885Z" />
<glyph unicode="&#xa5;" glyph-name="yen" horiz-adv-x="1325" d="M993 1444T1112 1444Q1203 1444 1265 1450V1409Q1224 1400 1185 1358T1101 1227L788 606H1067V565H780V401H1067V360H780V217Q780 140 792 105T838 57T946 41V0Q850 6 686 6Q510 6 423 0V41Q497
44 530 57T576 105T589 217V360H303V401H589V526L568 565H303V606H546L174 1292Q136 1361 109 1384T55 1407V1450Q134 1444 235 1444Q434 1444 522 1450V1407Q378 1407 378 1328Q378 1298 399 1257L739 606H741L1001 1124Q1057 1237 1057 1300Q1057 1358 1012 1382T876
1409V1450Q993 1444 1112 1444Z" />
<glyph unicode="&#xa6;" glyph-name="brokenbar" horiz-adv-x="459" d="M188 786V1757H270V786H188ZM188 -399V668H270V-399H188Z" />
<glyph unicode="&#xa7;" glyph-name="section" horiz-adv-x="1040" d="M792 162T830 93T868 -63Q868 -158 824 -231T698 -344T508 -385Q410 -385 326 -350Q252 -319 210 -270T168 -166Q168 -119 197 -87T276 -55Q324 -55 356 -85T389 -164Q389 -202 368 -231T301
-272Q318 -311 379 -328T502 -346Q580 -346 630 -316T702 -240T725 -143Q725 -68 678 -4T572 106T385 240Q276 315 213 371T117 492T84 639Q84 863 319 993Q248 1058 211 1126T174 1280Q174 1374 218 1447T345 1561T535 1602Q627 1602 717 1567Q790 1536 832 1486T874
1382Q874 1335 845 1304T766 1272Q719 1272 686 1302T653 1380Q653 1418 674 1448T741 1489Q722 1528 662 1545T543 1563Q463 1563 413 1533T340 1457T317 1360Q317 1285 364 1220T470 1111T657 977Q766 902 829 846T925 725T958 578Q958 358 718 228Q792 162 830
93ZM639 295T696 247Q773 290 810 349T848 475Q848 539 810 596T711 703T553 819Q401 923 345 970Q270 929 233 869T195 741Q195 677 233 620T331 514T489 397Q639 295 696 247Z" />
<glyph unicode="&#xa8;" glyph-name="dieresis" horiz-adv-x="799" d="M213 1522T240 1506T284 1462T301 1403Q301 1371 285 1344T241 1300T182 1284Q133 1284 98 1319T63 1403Q63 1434 79 1461T122 1505T182 1522Q213 1522 240 1506ZM647 1522T674 1506T718 1462T735
1403Q735 1371 719 1344T675 1300T616 1284Q567 1284 533 1319T498 1403Q498 1434 514 1461T557 1505T616 1522Q647 1522 674 1506Z" />
<glyph unicode="&#xa9;" glyph-name="copyright" horiz-adv-x="1831" d="M1137 1602T1324 1493T1621 1196T1731 786Q1731 565 1622 378T1325 81T915 -29Q694 -29 507 80T210 377T100 786Q100 1008 209 1195T506 1492T915 1602Q1137 1602 1324 1493ZM716 1536T548
1435T281 1162T182 786Q182 583 280 411T547 138T915 37Q1115 37 1283 138T1550 411T1649 786Q1649 990 1551 1162T1284 1435T915 1536Q716 1536 548 1435ZM1278 443T1230 379T1105 273T926 231Q797 231 694 297T531 486T471 774Q471 940 531 1069T701 1271T950
1343Q1020 1343 1085 1325T1196 1272Q1282 1212 1282 1120Q1282 1067 1252 1037T1174 1006Q1126 1006 1094 1036T1061 1116Q1061 1158 1084 1185T1147 1221Q1127 1258 1074 1282T963 1307Q862 1307 786 1227Q670 1099 670 799Q670 630 709 523T814 368T963 319Q1052
319 1131 370T1262 530L1300 516Q1278 443 1230 379Z" />
<glyph unicode="&#xaa;" glyph-name="ordfeminine" horiz-adv-x="948" d="M547 1361T512 1400T408 1440Q323 1440 256 1397Q286 1388 306 1363T326 1300Q326 1261 299 1236T236 1210Q191 1210 164 1235T137 1303Q137 1384 236 1432Q335 1479 461 1479Q593 1479
652 1418T711 1219V885Q711 842 722 826T762 809Q811 809 846 844L868 813Q788 737 684 737Q611 737 581 761T547 834Q447 737 307 737Q258 737 215 754T145 808T117 897Q117 953 149 992T236 1058T383 1120Q463 1150 505 1175T547 1235V1272Q547 1361 512 1400ZM539
1154T516 1139T432 1096Q355 1061 320 1024T285 934Q285 878 316 844T397 809Q474 809 547 874V1171Q539 1154 516 1139Z" />
<glyph unicode="&#xab;" glyph-name="guillemotleft" horiz-adv-x="1028" d="M500 878T416 756T219 535Q329 439 413 310T571 -14L537 -29Q449 167 337 303T66 526V528Q224 616 336 751T537 1083L571 1069Q500 878 416 756ZM858 878T775 756T578 535Q688 439 772
310T930 -14L895 -29Q807 167 695 303T424 526V528Q582 616 694 751T895 1083L930 1069Q858 878 775 756Z" />
<glyph unicode="&#xac;" glyph-name="logicalnot" horiz-adv-x="1343" d="M1120 338V696H168V758H1194V338H1120Z" />
<glyph unicode="&#xad;" glyph-name="softhyphen" horiz-adv-x="1022" />
<glyph unicode="&#xae;" glyph-name="registered" horiz-adv-x="1389" d="M849 1602T980 1525T1189 1317T1266 1030Q1266 875 1189 744T981 536T694 459Q539 459 408 536T200 744T123 1030Q123 1185 200 1316T408 1525T694 1602Q849 1602 980 1525ZM827 524T938
592T1115 777T1180 1030Q1180 1167 1115 1283T939 1467T694 1536Q561 1536 450 1468T274 1283T209 1030Q209 894 274 778T450 593T694 524Q827 524 938 592ZM940 805T944 785T955 755T975 745Q990 745 999 762L1020 748Q1008 724 987 715T930 705Q878 705 853 724T817
788L782 940Q773 980 759 998T711 1025T602 1034V827Q602 795 605 780T618 760T649 752V721Q629 721 603 722T545 723Q510 723 483 722T438 721V752Q459 754 468 759T481 780T485 827V1276Q485 1309 482 1324T469 1346T438 1354V1384Q463 1382 537 1382Q604 1382
648 1383T713 1384Q828 1384 889 1342T950 1223Q950 1084 752 1049Q833 1040 867 1012T913 930L938 813Q940 805 944 785ZM752 1067T787 1102T823 1202Q823 1281 791 1317T680 1354Q646 1354 630 1349T608 1329T602 1286V1067H651Q752 1067 787 1102Z" />
<glyph unicode="&#xaf;" glyph-name="overscore" horiz-adv-x="741" d="M51 1407V1458H690V1407H51Z" />
<glyph unicode="&#xb0;" glyph-name="degree" horiz-adv-x="682" d="M407 1679T464 1649T556 1563T590 1434Q590 1359 556 1303T465 1217T340 1186Q274 1186 217 1216T126 1303T92 1434Q92 1507 126 1563T217 1649T340 1679Q407 1679 464 1649ZM292 1645T247 1620T172
1547T143 1432Q143 1364 172 1316T246 1245T340 1221Q389 1221 434 1244T509 1316T539 1432Q539 1498 510 1546T434 1620T340 1645Q292 1645 247 1620Z" />
<glyph unicode="&#xb1;" glyph-name="plusminus" horiz-adv-x="1313" d="M150 0V62H1176V0H150ZM1155 758V696H680V215H606V696H129V758H606V1241H680V758H1155Z" />
<glyph unicode="&#xb2;" glyph-name="twosuperior" horiz-adv-x="692" d="M112 1453T183 1499T356 1546Q449 1546 505 1507T561 1393Q561 1315 508 1255T359 1121T229 1012H500Q531 1012 549 1019T576 1041T596 1081L631 1075Q603 971 600 891Q575 897 522 897H72V938Q95
958 202 1038T370 1198T432 1366Q432 1477 299 1477Q175 1477 104 1366L74 1382Q112 1453 183 1499Z" />
<glyph unicode="&#xb3;" glyph-name="threesuperior" horiz-adv-x="664" d="M95 1455T167 1501T344 1548Q438 1548 494 1509T551 1399Q551 1331 499 1281T360 1206Q424 1205 478 1184T565 1121T598 1022Q598 931 519 861T317 752T66 713V748Q171 751 265 788T416
887T473 1022Q473 1092 433 1136T324 1184Q314 1179 298 1171T271 1159T250 1155Q217 1155 217 1180Q217 1199 240 1204T307 1208Q369 1234 395 1276T422 1360Q422 1414 384 1446T283 1479Q222 1479 172 1451T88 1368L57 1384Q95 1455 167 1501Z" />
<glyph unicode="&#xb4;" glyph-name="acute" horiz-adv-x="457" d="M85 1314T116 1370T191 1511T264 1634Q299 1680 342 1680Q367 1680 387 1665Q415 1642 415 1608Q415 1575 387 1538Q357 1500 298 1449T185 1348T63 1227L41 1245Q85 1314 116 1370Z" />
<glyph unicode="&#xb6;" glyph-name="paragraph" horiz-adv-x="1321" d="M460 -27T266 178T72 737Q72 947 159 1109T412 1361T805 1452Q863 1452 965 1449T1114 1445Q1186 1445 1237 1450V1411Q1172 1408 1138 1393T1092 1349T1079 1272V-154Q1079 -231 1091 -266T1137
-314T1245 -330V-371Q1151 -365 985 -365Q781 -365 682 -371V-330Q769 -327 812 -309T872 -250T889 -133V-27Q460 -27 266 178ZM884 1343T869 1256T842 1033T827 750Q683 750 552 744T338 730T254 719Q254 715 336 708T549 696T827 690Q829 537 841 402T869 183T891
98V1343Q884 1343 869 1256Z" />
<glyph unicode="&#xb7;" glyph-name="middot" horiz-adv-x="541" d="M305 679T335 662T383 614T401 548Q401 513 384 483T336 435T270 417Q235 417 205 435T157 483T139 548Q139 583 156 613T204 661T270 679Q305 679 335 662Z" />
<glyph unicode="&#xb8;" glyph-name="cedilla" horiz-adv-x="467" d="M237 -133T297 -133Q355 -133 388 -158T422 -229Q422 -283 387 -318T298 -369T190 -385Q85 -385 20 -362L29 -326Q71 -332 106 -332Q180 -332 235 -311T291 -240Q291 -182 205 -182Q146 -182
104 -197L174 12H229L176 -147Q237 -133 297 -133Z" />
<glyph unicode="&#xb9;" glyph-name="onesuperior" horiz-adv-x="539" d="M365 998T378 977T421 947T502 938V895Q424 899 303 899Q170 899 84 895V938Q160 938 198 959T236 1038V1303Q236 1362 222 1390T174 1427T70 1436V1479Q175 1481 242 1495T365 1542V1038Q365
998 378 977Z" />
<glyph unicode="&#xba;" glyph-name="ordmasculine" horiz-adv-x="930" d="M558 1479T641 1436T775 1309T827 1108Q827 991 776 907T641 780T465 737Q372 737 289 780T154 907T102 1108Q102 1225 153 1309T288 1436T465 1479Q558 1479 641 1436ZM410 1442T367
1407T298 1297T272 1108Q272 994 297 919T366 809T465 774Q519 774 562 809T631 919T657 1108Q657 1222 632 1297T563 1407T465 1442Q410 1442 367 1407Z" />
<glyph unicode="&#xbb;" glyph-name="guillemotright" horiz-adv-x="1026" d="M221 885T333 750T604 526V524Q446 436 334 301T133 -31L98 -16Q170 175 253 297T451 518Q341 614 257 743T98 1067L133 1081Q221 885 333 750ZM579 885T691 750T963 526V524Q804 436
692 301T492 -31L457 -16Q528 174 611 296T809 518Q699 614 615 743T457 1067L492 1081Q579 885 691 750Z" />
<glyph unicode="&#xbc;" glyph-name="onequarter" horiz-adv-x="1419" d="M170 -113L131 -86L1329 1688L1368 1661L170 -113ZM398 998T411 977T454 947T535 938V895Q457 899 336 899Q203 899 117 895V938Q193 938 231 959T269 1038V1303Q269 1362 255 1390T207
1427T103 1436V1479Q208 1481 275 1495T398 1542V1038Q398 998 411 977ZM1247 98T1243 31Q1219 37 1166 37H1125V-203H1010V37H613V80L1082 621H1125V121H1141Q1173 121 1190 128T1217 149T1237 190L1272 184Q1247 98 1243 31ZM1010 488L694 121H1010V488Z" />
<glyph unicode="&#xbd;" glyph-name="onehalf" horiz-adv-x="1434" d="M137 -113L98 -86L1296 1688L1335 1661L137 -113ZM414 998T427 977T470 947T551 938V895Q473 899 352 899Q219 899 133 895V938Q209 938 247 959T285 1038V1303Q285 1362 271 1390T223 1427T119
1436V1479Q224 1481 291 1495T414 1542V1038Q414 998 427 977ZM835 558T906 604T1079 651Q1172 651 1228 612T1284 498Q1284 420 1231 360T1082 226T952 117H1223Q1254 117 1272 124T1299 146T1319 186L1354 180Q1326 76 1323 -4Q1298 2 1245 2H795V43Q818 63 925
143T1093 303T1155 471Q1155 582 1022 582Q898 582 827 471L797 487Q835 558 906 604Z" />
<glyph unicode="&#xbe;" glyph-name="threequarters" horiz-adv-x="1524" d="M266 -113L227 -86L1425 1688L1464 1661L266 -113ZM142 1455T214 1501T391 1548Q485 1548 541 1509T598 1399Q598 1331 546 1281T407 1206Q471 1205 525 1184T612 1121T645 1022Q645
931 566 861T364 752T113 713V748Q218 751 312 788T463 887T520 1022Q520 1092 480 1136T371 1184Q361 1179 345 1171T318 1159T297 1155Q264 1155 264 1180Q264 1199 287 1204T354 1208Q416 1234 442 1276T469 1360Q469 1414 431 1446T330 1479Q269 1479 219 1451T135
1368L104 1384Q142 1455 214 1501ZM1343 98T1339 31Q1315 37 1262 37H1221V-203H1106V37H709V80L1178 621H1221V121H1237Q1269 121 1286 128T1313 149T1333 190L1368 184Q1343 98 1339 31ZM1106 488L790 121H1106V488Z" />
<glyph unicode="&#xbf;" glyph-name="questiondown" horiz-adv-x="928" d="M578 1085T608 1068T656 1020T674 954Q674 919 657 889T609 841T543 823Q508 823 478 841T430 889T412 954Q412 989 429 1019T477 1067T543 1085Q578 1085 608 1068ZM435 334T365 277T271
153T246 2Q246 -174 322 -259T532 -344Q675 -344 733 -291Q693 -283 670 -257T647 -186Q647 -136 679 -106T760 -76Q807 -76 837 -106T868 -184Q868 -269 772 -326Q671 -385 494 -385Q366 -385 269 -343T117 -223T63 -37Q63 124 187 236T524 397V655H565V379Q435
334 365 277Z" />
<glyph unicode="&#xc0;" glyph-name="Agrave" horiz-adv-x="1290" d="M1211 45T1303 41V0Q1219 6 1083 6Q908 6 821 0V41Q899 44 932 60T966 117Q966 152 942 213L816 549H322L238 332Q197 228 197 164Q197 99 240 71T375 41V0Q258 6 139 6Q47 6 -14 0V41Q88 64
147 219L629 1460H662L1161 172Q1211 45 1303 41ZM572 1201L337 590H801L572 1201ZM681 1619T622 1644T474 1704T344 1763Q290 1799 290 1844Q290 1863 301 1882Q324 1916 364 1916Q395 1916 426 1896Q467 1870 524 1817T636 1716T770 1608L756 1581Q681 1619 622
1644Z" />
<glyph unicode="&#xc1;" glyph-name="Aacute" horiz-adv-x="1290" d="M1211 45T1303 41V0Q1219 6 1083 6Q908 6 821 0V41Q899 44 932 60T966 117Q966 152 942 213L816 549H322L238 332Q197 228 197 164Q197 99 240 71T375 41V0Q258 6 139 6Q47 6 -14 0V41Q88 64
147 219L629 1460H662L1161 172Q1211 45 1303 41ZM572 1201L337 590H801L572 1201ZM573 1658T621 1699T740 1805T852 1896Q883 1916 914 1916Q954 1916 977 1882Q988 1863 988 1844Q988 1799 934 1763Q893 1738 821 1710T680 1654T522 1581L508 1608Q573 1658 621
1699Z" />
<glyph unicode="&#xc2;" glyph-name="Acircumflex" horiz-adv-x="1290" d="M1211 45T1303 41V0Q1219 6 1083 6Q908 6 821 0V41Q899 44 932 60T966 117Q966 152 942 213L816 549H322L238 332Q197 228 197 164Q197 99 240 71T375 41V0Q258 6 139 6Q47 6 -14 0V41Q88
64 147 219L629 1460H662L1161 172Q1211 45 1303 41ZM572 1201L337 590H801L572 1201ZM700 1796T801 1724T1035 1606L1024 1577Q900 1603 781 1642T592 1720Q534 1682 438 1643T242 1577L232 1606Q363 1651 464 1723T615 1876H652Q700 1796 801 1724Z" />
<glyph unicode="&#xc3;" glyph-name="Atilde" horiz-adv-x="1290" d="M1211 45T1303 41V0Q1219 6 1083 6Q908 6 821 0V41Q899 44 932 60T966 117Q966 152 942 213L816 549H322L238 332Q197 228 197 164Q197 99 240 71T375 41V0Q258 6 139 6Q47 6 -14 0V41Q88 64
147 219L629 1460H662L1161 172Q1211 45 1303 41ZM572 1201L337 590H801L572 1201ZM246 1696T278 1745T360 1820T467 1847Q518 1847 563 1827T702 1749T865 1690Q960 1690 992 1804L1022 1798Q1016 1732 984 1683T903 1608T795 1581Q744 1581 699 1601T561 1680T398
1739Q302 1739 271 1624L240 1630Q246 1696 278 1745Z" />
<glyph unicode="&#xc4;" glyph-name="Adieresis" horiz-adv-x="1290" d="M1211 45T1303 41V0Q1219 6 1083 6Q908 6 821 0V41Q899 44 932 60T966 117Q966 152 942 213L816 549H322L238 332Q197 228 197 164Q197 99 240 71T375 41V0Q258 6 139 6Q47 6 -14 0V41Q88
64 147 219L629 1460H662L1161 172Q1211 45 1303 41ZM572 1201L337 590H801L572 1201ZM447 1819T474 1803T518 1759T535 1700Q535 1668 519 1641T475 1597T416 1581Q367 1581 332 1616T297 1700Q297 1731 313 1758T356 1802T416 1819Q447 1819 474 1803ZM881 1819T908
1803T952 1759T969 1700Q969 1668 953 1641T909 1597T850 1581Q801 1581 766 1616T731 1700Q731 1731 747 1758T790 1802T850 1819Q881 1819 908 1803Z" />
<glyph unicode="&#xc5;" glyph-name="Aring" horiz-adv-x="1290" d="M1211 45T1303 41V0Q1219 6 1083 6Q908 6 821 0V41Q899 44 932 60T966 117Q966 152 942 213L816 549H322L238 332Q197 228 197 164Q197 99 240 71T375 41V0Q258 6 139 6Q47 6 -14 0V41Q88 64
147 219L629 1460H662L1161 172Q1211 45 1303 41ZM572 1201L337 590H801L572 1201ZM687 1894T732 1871T805 1806T832 1708Q832 1651 805 1609T733 1543T633 1520Q580 1520 536 1543T464 1608T437 1708Q437 1764 464 1806T536 1871T633 1894Q687 1894 732 1871ZM599
1851T567 1834T515 1784T494 1706Q494 1660 514 1628T567 1580T633 1563Q669 1563 701 1579T754 1628T775 1706Q775 1751 755 1784T701 1834T633 1851Q599 1851 567 1834Z" />
<glyph unicode="&#xc6;" glyph-name="AE" horiz-adv-x="1749" d="M1636 354T1636 262Q1636 142 1651 0Q1524 6 1223 6Q901 6 731 0V41Q788 44 813 57T847 104T856 217V709H498L199 213Q161 148 161 113Q161 77 196 61T303 41V0Q241 6 117 6Q31 6 -20 0V41Q13 42
46 72T121 172L839 1356Q824 1384 791 1395T690 1409V1450Q776 1447 893 1446L975 1581H1024L942 1445Q1025 1444 1096 1444T1223 1444Q1495 1444 1610 1450Q1595 1319 1595 1208Q1595 1124 1602 1081H1554Q1543 1213 1526 1278T1467 1373T1341 1403H1212Q1138
1403 1105 1391T1060 1345T1047 1233V750H1196Q1277 750 1304 801T1337 907T1346 979H1393Q1385 875 1385 808L1386 729Q1386 655 1399 479H1352Q1351 491 1343 563T1298 672T1196 709H1047V217Q1047 140 1059 106T1105 59T1212 47H1362Q1461 47 1506 80T1566 182T1595
410H1642Q1636 354 1636 262ZM856 1233Q856 1272 853 1298L523 750H856V1233Z" />
<glyph unicode="&#xc7;" glyph-name="Ccedilla" horiz-adv-x="1409" d="M1224 64T1213 92T1179 121Q1163 121 1137 104Q1076 61 1025 34T907 -11T758 -29Q563 -29 417 59T190 314T109 713Q109 939 192 1113T423 1383T760 1479Q882 1479 968 1444T1137 1346Q1159
1328 1177 1328Q1219 1328 1229 1450H1276Q1268 1317 1268 979H1221Q1206 1071 1194 1122T1164 1208T1118 1282Q1056 1362 961 1402T756 1442Q623 1442 523 1354T368 1103T313 721Q313 498 373 338T538 95T776 12Q878 12 975 51T1126 168Q1168 224 1186 289T1221
492H1268Q1268 139 1276 0H1229Q1224 64 1213 92ZM796 -133T856 -133Q914 -133 947 -158T981 -229Q981 -283 946 -318T857 -369T750 -385Q645 -385 580 -362L588 -326Q630 -332 666 -332Q740 -332 795 -311T850 -240Q850 -182 764 -182Q706 -182 664 -197L733 10H789L735
-147Q796 -133 856 -133Z" />
<glyph unicode="&#xc8;" glyph-name="Egrave" horiz-adv-x="1247" d="M1135 355T1135 262Q1135 146 1149 0Q1010 6 680 6Q287 6 86 0V41Q160 44 193 57T239 105T252 217V1233Q252 1310 240 1345T194 1393T86 1409V1450Q287 1444 680 1444Q981 1444 1108 1450Q1094
1316 1094 1208Q1094 1128 1100 1081H1053Q1038 1214 1016 1279T940 1373T778 1403H608Q534 1403 501 1391T455 1345T442 1233V750H578Q681 750 715 811T757 937T768 1020H815Q808 919 808 827L809 729Q809 625 821 438H774Q772 452 763 537T707 665T578 709H442V217Q442
140 454 106T500 59T608 47H758Q886 47 952 81T1048 190T1094 410H1141Q1135 355 1135 262ZM675 1619T616 1644T468 1704T338 1763Q284 1799 284 1844Q284 1863 295 1882Q318 1916 358 1916Q389 1916 420 1896Q461 1870 518 1817T630 1716T764 1608L750 1581Q675
1619 616 1644Z" />
<glyph unicode="&#xc9;" glyph-name="Eacute" horiz-adv-x="1247" d="M1135 355T1135 262Q1135 146 1149 0Q1010 6 680 6Q287 6 86 0V41Q160 44 193 57T239 105T252 217V1233Q252 1310 240 1345T194 1393T86 1409V1450Q287 1444 680 1444Q981 1444 1108 1450Q1094
1316 1094 1208Q1094 1128 1100 1081H1053Q1038 1214 1016 1279T940 1373T778 1403H608Q534 1403 501 1391T455 1345T442 1233V750H578Q681 750 715 811T757 937T768 1020H815Q808 919 808 827L809 729Q809 625 821 438H774Q772 452 763 537T707 665T578 709H442V217Q442
140 454 106T500 59T608 47H758Q886 47 952 81T1048 190T1094 410H1141Q1135 355 1135 262ZM567 1658T615 1699T734 1805T846 1896Q877 1916 908 1916Q948 1916 971 1882Q982 1863 982 1844Q982 1799 928 1763Q887 1738 815 1710T674 1654T516 1581L502 1608Q567
1658 615 1699Z" />
<glyph unicode="&#xca;" glyph-name="Ecircumflex" horiz-adv-x="1247" d="M1135 355T1135 262Q1135 146 1149 0Q1010 6 680 6Q287 6 86 0V41Q160 44 193 57T239 105T252 217V1233Q252 1310 240 1345T194 1393T86 1409V1450Q287 1444 680 1444Q981 1444 1108 1450Q1094
1316 1094 1208Q1094 1128 1100 1081H1053Q1038 1214 1016 1279T940 1373T778 1403H608Q534 1403 501 1391T455 1345T442 1233V750H578Q681 750 715 811T757 937T768 1020H815Q808 919 808 827L809 729Q809 625 821 438H774Q772 452 763 537T707 665T578 709H442V217Q442
140 454 106T500 59T608 47H758Q886 47 952 81T1048 190T1094 410H1141Q1135 355 1135 262ZM694 1796T795 1724T1029 1606L1018 1577Q894 1603 775 1642T586 1720Q528 1682 432 1643T236 1577L226 1606Q357 1651 458 1723T609 1876H646Q694 1796 795 1724Z" />
<glyph unicode="&#xcb;" glyph-name="Edieresis" horiz-adv-x="1247" d="M1135 355T1135 262Q1135 146 1149 0Q1010 6 680 6Q287 6 86 0V41Q160 44 193 57T239 105T252 217V1233Q252 1310 240 1345T194 1393T86 1409V1450Q287 1444 680 1444Q981 1444 1108 1450Q1094
1316 1094 1208Q1094 1128 1100 1081H1053Q1038 1214 1016 1279T940 1373T778 1403H608Q534 1403 501 1391T455 1345T442 1233V750H578Q681 750 715 811T757 937T768 1020H815Q808 919 808 827L809 729Q809 625 821 438H774Q772 452 763 537T707 665T578 709H442V217Q442
140 454 106T500 59T608 47H758Q886 47 952 81T1048 190T1094 410H1141Q1135 355 1135 262ZM441 1819T468 1803T512 1759T529 1700Q529 1668 513 1641T469 1597T410 1581Q361 1581 326 1616T291 1700Q291 1731 307 1758T350 1802T410 1819Q441 1819 468 1803ZM875
1819T902 1803T946 1759T963 1700Q963 1668 947 1641T903 1597T844 1581Q795 1581 760 1616T725 1700Q725 1731 741 1758T784 1802T844 1819Q875 1819 902 1803Z" />
<glyph unicode="&#xcc;" glyph-name="Igrave" horiz-adv-x="694" d="M534 1406T501 1393T455 1345T442 1233V217Q442 140 454 105T500 57T608 41V0Q514 6 348 6Q172 6 86 0V41Q160 44 193 57T239 105T252 217V1233Q252 1310 240 1345T194 1393T86 1409V1450Q171
1444 348 1444Q514 1444 608 1450V1409Q534 1406 501 1393ZM652 1619T593 1644T445 1704T315 1763Q261 1799 261 1844Q261 1863 272 1882Q295 1916 335 1916Q366 1916 397 1896Q438 1870 495 1817T607 1716T741 1608L727 1581Q652 1619 593 1644Z" />
<glyph unicode="&#xcd;" glyph-name="Iacute" horiz-adv-x="694" d="M534 1406T501 1393T455 1345T442 1233V217Q442 140 454 105T500 57T608 41V0Q514 6 348 6Q172 6 86 0V41Q160 44 193 57T239 105T252 217V1233Q252 1310 240 1345T194 1393T86 1409V1450Q171
1444 348 1444Q514 1444 608 1450V1409Q534 1406 501 1393ZM288 1658T336 1699T455 1805T567 1896Q598 1916 629 1916Q669 1916 692 1882Q703 1863 703 1844Q703 1799 649 1763Q608 1738 536 1710T395 1654T237 1581L223 1608Q288 1658 336 1699Z" />
<glyph unicode="&#xce;" glyph-name="Icircumflex" horiz-adv-x="694" d="M534 1406T501 1393T455 1345T442 1233V217Q442 140 454 105T500 57T608 41V0Q514 6 348 6Q172 6 86 0V41Q160 44 193 57T239 105T252 217V1233Q252 1310 240 1345T194 1393T86 1409V1450Q171
1444 348 1444Q514 1444 608 1450V1409Q534 1406 501 1393ZM671 1796T772 1724T1006 1606L995 1577Q871 1603 752 1642T563 1720Q505 1682 409 1643T213 1577L203 1606Q334 1651 435 1723T586 1876H623Q671 1796 772 1724Z" />
<glyph unicode="&#xcf;" glyph-name="Idieresis" horiz-adv-x="694" d="M534 1406T501 1393T455 1345T442 1233V217Q442 140 454 105T500 57T608 41V0Q514 6 348 6Q172 6 86 0V41Q160 44 193 57T239 105T252 217V1233Q252 1310 240 1345T194 1393T86 1409V1450Q171
1444 348 1444Q514 1444 608 1450V1409Q534 1406 501 1393ZM418 1819T445 1803T489 1759T506 1700Q506 1668 490 1641T446 1597T387 1581Q338 1581 303 1616T268 1700Q268 1731 284 1758T327 1802T387 1819Q418 1819 445 1803ZM852 1819T879 1803T923 1759T940
1700Q940 1668 924 1641T880 1597T821 1581Q772 1581 737 1616T702 1700Q702 1731 718 1758T761 1802T821 1819Q852 1819 879 1803Z" />
<glyph unicode="&#xd0;" glyph-name="Eth" horiz-adv-x="1483" d="M198 1443T288 1443L338 1444Q620 1450 647 1450Q1009 1450 1189 1269T1370 741Q1370 518 1283 351T1028 92T629 0Q601 0 496 3T342 6Q174 6 88 0V41Q162 44 195 57T241 105T254 217V709H88V750H254V1233Q254
1310 242 1345T196 1393T88 1409V1450Q198 1443 288 1443ZM444 139T456 103T500 52T598 37Q816 37 940 116T1114 346T1165 733Q1165 969 1110 1117T931 1339T596 1413Q532 1413 500 1399T456 1347T444 1237V750H729V709H444V213Q444 139 456 103Z" />
<glyph unicode="&#xd1;" glyph-name="Ntilde" horiz-adv-x="1446" d="M1301 1406T1267 1389T1219 1331T1206 1212V-10H1159L299 1319V238Q299 159 313 119T365 62T485 41V0Q412 6 276 6Q154 6 86 0V41Q157 44 191 61T239 119T252 238V1233Q252 1310 240 1345T194
1393T86 1409V1450Q153 1444 276 1444Q368 1444 436 1450L1159 336V1212Q1159 1291 1146 1331T1093 1388T973 1409V1450Q1046 1444 1182 1444Q1304 1444 1372 1450V1409Q1301 1406 1267 1389ZM379 1696T411 1745T493 1820T600 1847Q651 1847 696 1827T835 1749T998
1690Q1093 1690 1125 1804L1155 1798Q1149 1732 1117 1683T1036 1608T928 1581Q877 1581 832 1601T694 1680T531 1739Q435 1739 404 1624L373 1630Q379 1696 411 1745Z" />
<glyph unicode="&#xd2;" glyph-name="Ograve" horiz-adv-x="1518" d="M955 1479T1101 1391T1328 1136T1409 737Q1409 511 1326 337T1095 67T758 -29Q563 -29 417 59T190 314T109 713Q109 939 192 1113T423 1383T760 1479Q955 1479 1101 1391ZM621 1442T521 1351T367
1096T313 721Q313 508 373 346T536 96T766 8Q897 8 996 99T1150 354T1204 729Q1204 942 1144 1104T981 1354T752 1442Q621 1442 521 1351ZM804 1619T745 1644T597 1704T467 1763Q413 1799 413 1844Q413 1863 424 1882Q447 1916 487 1916Q518 1916 549 1896Q590
1870 647 1817T759 1716T893 1608L879 1581Q804 1619 745 1644Z" />
<glyph unicode="&#xd3;" glyph-name="Oacute" horiz-adv-x="1518" d="M955 1479T1101 1391T1328 1136T1409 737Q1409 511 1326 337T1095 67T758 -29Q563 -29 417 59T190 314T109 713Q109 939 192 1113T423 1383T760 1479Q955 1479 1101 1391ZM621 1442T521 1351T367
1096T313 721Q313 508 373 346T536 96T766 8Q897 8 996 99T1150 354T1204 729Q1204 942 1144 1104T981 1354T752 1442Q621 1442 521 1351ZM696 1658T744 1699T863 1805T975 1896Q1006 1916 1037 1916Q1077 1916 1100 1882Q1111 1863 1111 1844Q1111 1799 1057 1763Q1016
1738 944 1710T803 1654T645 1581L631 1608Q696 1658 744 1699Z" />
<glyph unicode="&#xd4;" glyph-name="Ocircumflex" horiz-adv-x="1518" d="M955 1479T1101 1391T1328 1136T1409 737Q1409 511 1326 337T1095 67T758 -29Q563 -29 417 59T190 314T109 713Q109 939 192 1113T423 1383T760 1479Q955 1479 1101 1391ZM621 1442T521
1351T367 1096T313 721Q313 508 373 346T536 96T766 8Q897 8 996 99T1150 354T1204 729Q1204 942 1144 1104T981 1354T752 1442Q621 1442 521 1351ZM823 1796T924 1724T1158 1606L1147 1577Q1023 1603 904 1642T715 1720Q657 1682 561 1643T365 1577L355 1606Q486
1651 587 1723T738 1876H775Q823 1796 924 1724Z" />
<glyph unicode="&#xd5;" glyph-name="Otilde" horiz-adv-x="1518" d="M955 1479T1101 1391T1328 1136T1409 737Q1409 511 1326 337T1095 67T758 -29Q563 -29 417 59T190 314T109 713Q109 939 192 1113T423 1383T760 1479Q955 1479 1101 1391ZM621 1442T521 1351T367
1096T313 721Q313 508 373 346T536 96T766 8Q897 8 996 99T1150 354T1204 729Q1204 942 1144 1104T981 1354T752 1442Q621 1442 521 1351ZM369 1696T401 1745T483 1820T590 1847Q641 1847 686 1827T825 1749T988 1690Q1083 1690 1115 1804L1145 1798Q1139 1732
1107 1683T1026 1608T918 1581Q867 1581 822 1601T684 1680T521 1739Q425 1739 394 1624L363 1630Q369 1696 401 1745Z" />
<glyph unicode="&#xd6;" glyph-name="Odieresis" horiz-adv-x="1518" d="M955 1479T1101 1391T1328 1136T1409 737Q1409 511 1326 337T1095 67T758 -29Q563 -29 417 59T190 314T109 713Q109 939 192 1113T423 1383T760 1479Q955 1479 1101 1391ZM621 1442T521
1351T367 1096T313 721Q313 508 373 346T536 96T766 8Q897 8 996 99T1150 354T1204 729Q1204 942 1144 1104T981 1354T752 1442Q621 1442 521 1351ZM570 1819T597 1803T641 1759T658 1700Q658 1668 642 1641T598 1597T539 1581Q490 1581 455 1616T420 1700Q420
1731 436 1758T479 1802T539 1819Q570 1819 597 1803ZM1004 1819T1031 1803T1075 1759T1092 1700Q1092 1668 1076 1641T1032 1597T973 1581Q924 1581 889 1616T854 1700Q854 1731 870 1758T913 1802T973 1819Q1004 1819 1031 1803Z" />
<glyph unicode="&#xd7;" glyph-name="multiply" horiz-adv-x="1044" d="M879 1126L924 1081L569 729L924 375L879 330L524 684L168 328L123 373L479 727L121 1085L166 1130L524 772L879 1126Z" />
<glyph unicode="&#xd8;" glyph-name="Oslash" horiz-adv-x="1518" d="M1298 1224T1353 1076T1409 737Q1409 511 1326 337T1095 67T758 -29Q523 -29 360 98L193 -150L150 -121L322 131Q219 228 164 375T109 713Q109 939 192 1113T423 1383T760 1479Q995 1479 1158
1352L1317 1583L1356 1556L1195 1320Q1298 1224 1353 1076ZM1012 1341T930 1391T752 1442Q621 1442 521 1351T367 1096T313 721Q313 441 416 249L1073 1248Q1012 1341 930 1391ZM507 107T589 58T766 8Q897 8 996 99T1150 354T1204 729Q1204 1009 1101 1201L446
200Q507 107 589 58Z" />
<glyph unicode="&#xd9;" glyph-name="Ugrave" horiz-adv-x="1397" d="M1270 1406T1236 1389T1189 1331T1176 1212V596Q1176 449 1157 344T1092 162Q1040 74 941 23T717 -29Q492 -29 373 82Q312 139 280 202T234 356T221 590V1233Q221 1310 209 1345T163 1393T55
1409V1450Q142 1444 317 1444Q482 1444 578 1450V1409Q504 1406 471 1393T425 1345T412 1233V555Q412 391 434 283T526 109T735 43Q952 43 1040 182T1128 573V1212Q1128 1288 1111 1329T1054 1388T942 1409V1450Q1016 1444 1151 1444Q1274 1444 1341 1450V1409Q1270
1406 1236 1389ZM769 1619T710 1644T562 1704T432 1763Q378 1799 378 1844Q378 1863 389 1882Q412 1916 452 1916Q483 1916 514 1896Q555 1870 612 1817T724 1716T858 1608L844 1581Q769 1619 710 1644Z" />
<glyph unicode="&#xda;" glyph-name="Uacute" horiz-adv-x="1397" d="M1270 1406T1236 1389T1189 1331T1176 1212V596Q1176 449 1157 344T1092 162Q1040 74 941 23T717 -29Q492 -29 373 82Q312 139 280 202T234 356T221 590V1233Q221 1310 209 1345T163 1393T55
1409V1450Q142 1444 317 1444Q482 1444 578 1450V1409Q504 1406 471 1393T425 1345T412 1233V555Q412 391 434 283T526 109T735 43Q952 43 1040 182T1128 573V1212Q1128 1288 1111 1329T1054 1388T942 1409V1450Q1016 1444 1151 1444Q1274 1444 1341 1450V1409Q1270
1406 1236 1389ZM661 1658T709 1699T828 1805T940 1896Q971 1916 1002 1916Q1042 1916 1065 1882Q1076 1863 1076 1844Q1076 1799 1022 1763Q981 1738 909 1710T768 1654T610 1581L596 1608Q661 1658 709 1699Z" />
<glyph unicode="&#xdb;" glyph-name="Ucircumflex" horiz-adv-x="1397" d="M1270 1406T1236 1389T1189 1331T1176 1212V596Q1176 449 1157 344T1092 162Q1040 74 941 23T717 -29Q492 -29 373 82Q312 139 280 202T234 356T221 590V1233Q221 1310 209 1345T163 1393T55
1409V1450Q142 1444 317 1444Q482 1444 578 1450V1409Q504 1406 471 1393T425 1345T412 1233V555Q412 391 434 283T526 109T735 43Q952 43 1040 182T1128 573V1212Q1128 1288 1111 1329T1054 1388T942 1409V1450Q1016 1444 1151 1444Q1274 1444 1341 1450V1409Q1270
1406 1236 1389ZM788 1796T889 1724T1123 1606L1112 1577Q988 1603 869 1642T680 1720Q622 1682 526 1643T330 1577L320 1606Q451 1651 552 1723T703 1876H740Q788 1796 889 1724Z" />
<glyph unicode="&#xdc;" glyph-name="Udieresis" horiz-adv-x="1397" d="M1270 1406T1236 1389T1189 1331T1176 1212V596Q1176 449 1157 344T1092 162Q1040 74 941 23T717 -29Q492 -29 373 82Q312 139 280 202T234 356T221 590V1233Q221 1310 209 1345T163 1393T55
1409V1450Q142 1444 317 1444Q482 1444 578 1450V1409Q504 1406 471 1393T425 1345T412 1233V555Q412 391 434 283T526 109T735 43Q952 43 1040 182T1128 573V1212Q1128 1288 1111 1329T1054 1388T942 1409V1450Q1016 1444 1151 1444Q1274 1444 1341 1450V1409Q1270
1406 1236 1389ZM535 1819T562 1803T606 1759T623 1700Q623 1668 607 1641T563 1597T504 1581Q455 1581 420 1616T385 1700Q385 1731 401 1758T444 1802T504 1819Q535 1819 562 1803ZM969 1819T996 1803T1040 1759T1057 1700Q1057 1668 1041 1641T997 1597T938
1581Q889 1581 854 1616T819 1700Q819 1731 835 1758T878 1802T938 1819Q969 1819 996 1803Z" />
<glyph unicode="&#xdd;" glyph-name="Yacute" horiz-adv-x="1210" d="M932 1444T1051 1444Q1143 1444 1204 1450V1409Q1163 1400 1124 1358T1040 1227L719 590V217Q719 140 731 105T777 57T885 41V0Q789 6 625 6Q449 6 362 0V41Q436 44 469 57T515 105T528 217V526L113
1292Q75 1361 48 1384T-6 1407V1450Q74 1444 174 1444Q373 1444 461 1450V1407Q317 1407 317 1328Q317 1298 338 1257L679 604L940 1124Q996 1237 996 1300Q996 1358 951 1382T815 1409V1450Q932 1444 1051 1444ZM563 1658T611 1699T730 1805T842 1896Q873 1916
904 1916Q944 1916 967 1882Q978 1863 978 1844Q978 1799 924 1763Q883 1738 811 1710T670 1654T512 1581L498 1608Q563 1658 611 1699Z" />
<glyph unicode="&#xde;" glyph-name="Thorn" horiz-adv-x="1188" d="M442 217Q442 140 454 105T500 57T608 41V0Q514 6 348 6Q172 6 86 0V41Q160 44 193 57T239 105T252 217V1233Q252 1310 240 1345T194 1393T86 1409V1450Q172 1444 348 1444Q514 1444 608 1450V1409Q534
1406 501 1393T455 1345T442 1233V1142Q658 1145 631 1145Q791 1145 902 1093T1068 951T1124 745Q1124 629 1075 525T905 352T586 283H442V217ZM766 324T843 434T920 733Q920 921 841 1013T580 1106Q533 1106 442 1104V324H565Q766 324 843 434Z" />
<glyph unicode="&#xdf;" glyph-name="germandbls" horiz-adv-x="1196" d="M199 1364T306 1483T602 1602Q777 1602 871 1524T965 1309Q965 1211 906 1124T765 975T616 887Q750 856 862 782T1042 599T1110 358Q1110 242 1059 154T923 19T739 -29Q680 -29 623 -10T527
50T489 147Q489 197 517 227T596 258Q643 258 674 231T705 158Q705 79 616 51Q623 32 654 17T723 2Q775 2 821 33T898 136T928 319Q928 439 891 551T777 748T588 868Q539 838 512 838Q496 838 484 847T471 872Q471 890 483 900T518 911Q549 911 592 895Q693 973
736 1069T780 1300Q780 1431 729 1501T580 1571Q502 1571 443 1509T383 1278V-23Q302 6 170 6Q108 6 43 0V43Q130 43 164 85T199 223V1102Q199 1364 306 1483Z" />
<glyph unicode="&#xe0;" glyph-name="agrave" horiz-adv-x="1020" d="M655 955T606 998T465 1042Q320 1042 262 969Q303 959 330 926T358 844Q358 792 326 763T238 733Q186 733 157 768T127 860Q127 940 223 1006Q273 1039 346 1061T510 1083Q594 1083 658 1063T758
1006Q805 958 822 895T840 719V150Q840 99 854 76T903 53Q928 53 949 64T995 96L1018 61Q982 34 958 19T903 -5T831 -14Q732 -14 694 35T655 168Q595 69 511 28T340 -14Q269 -14 210 10T116 86T80 215Q80 293 118 348T225 444T410 535Q430 543 508 575T620 639T655
709V836Q655 955 606 998ZM640 602T605 582T459 508Q400 480 359 451T289 371T260 248Q260 159 305 114T424 68Q560 68 655 223V625Q640 602 605 582ZM519 1286T473 1329T354 1436T252 1538Q224 1575 224 1608Q224 1642 252 1665Q271 1680 296 1680Q340 1680 375
1634Q404 1596 440 1527T510 1393T598 1245L575 1227Q519 1286 473 1329Z" />
<glyph unicode="&#xe1;" glyph-name="aacute" horiz-adv-x="1020" d="M655 955T606 998T465 1042Q320 1042 262 969Q303 959 330 926T358 844Q358 792 326 763T238 733Q186 733 157 768T127 860Q127 940 223 1006Q273 1039 346 1061T510 1083Q594 1083 658 1063T758
1006Q805 958 822 895T840 719V150Q840 99 854 76T903 53Q928 53 949 64T995 96L1018 61Q982 34 958 19T903 -5T831 -14Q732 -14 694 35T655 168Q595 69 511 28T340 -14Q269 -14 210 10T116 86T80 215Q80 293 118 348T225 444T410 535Q430 543 508 575T620 639T655
709V836Q655 955 606 998ZM640 602T605 582T459 508Q400 480 359 451T289 371T260 248Q260 159 305 114T424 68Q560 68 655 223V625Q640 602 605 582ZM421 1314T452 1370T527 1511T600 1634Q635 1680 678 1680Q703 1680 723 1665Q751 1642 751 1608Q751 1575 723
1538Q693 1500 634 1449T521 1348T399 1227L377 1245Q421 1314 452 1370Z" />
<glyph unicode="&#xe2;" glyph-name="acircumflex" horiz-adv-x="1020" d="M655 955T606 998T465 1042Q320 1042 262 969Q303 959 330 926T358 844Q358 792 326 763T238 733Q186 733 157 768T127 860Q127 940 223 1006Q273 1039 346 1061T510 1083Q594 1083 658
1063T758 1006Q805 958 822 895T840 719V150Q840 99 854 76T903 53Q928 53 949 64T995 96L1018 61Q982 34 958 19T903 -5T831 -14Q732 -14 694 35T655 168Q595 69 511 28T340 -14Q269 -14 210 10T116 86T80 215Q80 293 118 348T225 444T410 535Q430 543 508 575T620
639T655 709V836Q655 955 606 998ZM640 602T605 582T459 508Q400 480 359 451T289 371T260 248Q260 159 305 114T424 68Q560 68 655 223V625Q640 602 605 582ZM564 1538T655 1443T864 1290L848 1262Q737 1300 632 1355T463 1466Q411 1411 329 1356T160 1262L143
1290Q260 1348 351 1443T485 1642H522Q564 1538 655 1443Z" />
<glyph unicode="&#xe3;" glyph-name="atilde" horiz-adv-x="1020" d="M655 955T606 998T465 1042Q320 1042 262 969Q303 959 330 926T358 844Q358 792 326 763T238 733Q186 733 157 768T127 860Q127 940 223 1006Q273 1039 346 1061T510 1083Q594 1083 658 1063T758
1006Q805 958 822 895T840 719V150Q840 99 854 76T903 53Q928 53 949 64T995 96L1018 61Q982 34 958 19T903 -5T831 -14Q732 -14 694 35T655 168Q595 69 511 28T340 -14Q269 -14 210 10T116 86T80 215Q80 293 118 348T225 444T410 535Q430 543 508 575T620 639T655
709V836Q655 955 606 998ZM640 602T605 582T459 508Q400 480 359 451T289 371T260 248Q260 159 305 114T424 68Q560 68 655 223V625Q640 602 605 582ZM140 1470T204 1521T353 1573Q404 1573 441 1555T542 1487T662 1438Q755 1438 820 1546L849 1532Q818 1424 754
1373T607 1321Q554 1321 517 1340T415 1408T296 1458Q205 1458 138 1348L109 1362Q140 1470 204 1521Z" />
<glyph unicode="&#xe4;" glyph-name="adieresis" horiz-adv-x="1020" d="M655 955T606 998T465 1042Q320 1042 262 969Q303 959 330 926T358 844Q358 792 326 763T238 733Q186 733 157 768T127 860Q127 940 223 1006Q273 1039 346 1061T510 1083Q594 1083 658
1063T758 1006Q805 958 822 895T840 719V150Q840 99 854 76T903 53Q928 53 949 64T995 96L1018 61Q982 34 958 19T903 -5T831 -14Q732 -14 694 35T655 168Q595 69 511 28T340 -14Q269 -14 210 10T116 86T80 215Q80 293 118 348T225 444T410 535Q430 543 508 575T620
639T655 709V836Q655 955 606 998ZM640 602T605 582T459 508Q400 480 359 451T289 371T260 248Q260 159 305 114T424 68Q560 68 655 223V625Q640 602 605 582ZM320 1522T347 1506T391 1462T408 1403Q408 1371 392 1344T348 1300T289 1284Q240 1284 205 1319T170
1403Q170 1434 186 1461T229 1505T289 1522Q320 1522 347 1506ZM754 1522T781 1506T825 1462T842 1403Q842 1371 826 1344T782 1300T723 1284Q674 1284 640 1319T605 1403Q605 1434 621 1461T664 1505T723 1522Q754 1522 781 1506Z" />
<glyph unicode="&#xe5;" glyph-name="aring" horiz-adv-x="1020" d="M655 955T606 998T465 1042Q320 1042 262 969Q303 959 330 926T358 844Q358 792 326 763T238 733Q186 733 157 768T127 860Q127 940 223 1006Q273 1039 346 1061T510 1083Q594 1083 658 1063T758
1006Q805 958 822 895T840 719V150Q840 99 854 76T903 53Q928 53 949 64T995 96L1018 61Q982 34 958 19T903 -5T831 -14Q732 -14 694 35T655 168Q595 69 511 28T340 -14Q269 -14 210 10T116 86T80 215Q80 293 118 348T225 444T410 535Q430 543 508 575T620 639T655
709V836Q655 955 606 998ZM640 602T605 582T459 508Q400 480 359 451T289 371T260 248Q260 159 305 114T424 68Q560 68 655 223V625Q640 602 605 582ZM558 1620T603 1597T676 1532T703 1434Q703 1377 676 1334T604 1268T504 1245Q451 1245 407 1268T335 1334T308
1434Q308 1489 335 1531T407 1597T504 1620Q558 1620 603 1597ZM470 1577T438 1560T386 1510T365 1432Q365 1386 385 1354T438 1305T504 1288Q540 1288 572 1304T625 1353T646 1432Q646 1477 626 1510T572 1560T504 1577Q470 1577 438 1560Z" />
<glyph unicode="&#xe6;" glyph-name="ae" horiz-adv-x="1520" d="M829 582T829 502Q829 367 869 266T976 111T1118 57Q1203 57 1268 104T1378 262L1419 246Q1397 174 1351 112T1234 10T1077 -29Q937 -29 841 38T697 233Q582 -29 346 -29Q277 -29 218 -6T121 68T84
197Q84 280 122 339T227 442T403 532Q424 541 503 575T616 641T649 709V836Q649 1042 449 1042Q392 1042 338 1026T252 969Q292 960 315 933T338 864Q338 814 306 784T225 754Q178 754 148 784T117 862Q117 944 213 1010Q320 1083 494 1083Q596 1083 667 1054T780
953Q887 1083 1069 1083Q1243 1083 1337 972T1432 633H836Q829 582 829 502ZM1238 775T1220 859T1161 994T1061 1044Q1003 1044 955 1004T875 881T832 672H1235Q1238 775 1220 859ZM613 583T483 520Q376 468 320 402T264 231Q264 137 310 95T424 53Q566 53 649
223V625Q613 583 483 520Z" />
<glyph unicode="&#xe7;" glyph-name="ccedilla" horiz-adv-x="995" d="M901 183T853 119T728 13T547 -29Q419 -29 316 37T154 226T94 514Q94 680 154 809T324 1011T571 1083Q709 1083 809 1018Q905 953 905 860Q905 806 875 776T797 745Q749 745 717 772T684 848Q684
892 708 921T770 961Q750 998 697 1022T586 1047Q511 1047 445 999T336 839T293 545Q293 290 375 175T588 59Q675 59 754 110T885 270L924 256Q901 183 853 119ZM550 -133T610 -133Q668 -133 701 -158T735 -229Q735 -283 700 -318T611 -369T503 -385Q398 -385 333
-362L342 -326Q384 -332 419 -332Q493 -332 548 -311T604 -240Q604 -182 518 -182Q459 -182 417 -197L487 12H542L489 -147Q550 -133 610 -133Z" />
<glyph unicode="&#xe8;" glyph-name="egrave" horiz-adv-x="1036" d="M924 174T872 112T741 10T565 -29Q419 -29 313 37T150 224T94 502Q94 680 151 811T312 1012T557 1083Q741 1083 840 972T940 633H300Q293 580 293 502Q293 367 337 266T454 111T606 57Q812
57 907 262L948 246Q924 174 872 112ZM747 774T726 859T660 994T549 1044Q486 1044 433 1004T344 880T297 672H743Q747 774 726 859ZM570 1286T524 1329T405 1436T303 1538Q275 1575 275 1608Q275 1642 303 1665Q322 1680 347 1680Q391 1680 426 1634Q455 1596
491 1527T561 1393T649 1245L626 1227Q570 1286 524 1329Z" />
<glyph unicode="&#xe9;" glyph-name="eacute" horiz-adv-x="1036" d="M924 174T872 112T741 10T565 -29Q419 -29 313 37T150 224T94 502Q94 680 151 811T312 1012T557 1083Q741 1083 840 972T940 633H300Q293 580 293 502Q293 367 337 266T454 111T606 57Q812
57 907 262L948 246Q924 174 872 112ZM747 774T726 859T660 994T549 1044Q486 1044 433 1004T344 880T297 672H743Q747 774 726 859ZM472 1314T503 1370T578 1511T651 1634Q686 1680 729 1680Q754 1680 774 1665Q802 1642 802 1608Q802 1575 774 1538Q744 1500
685 1449T572 1348T450 1227L428 1245Q472 1314 503 1370Z" />
<glyph unicode="&#xea;" glyph-name="ecircumflex" horiz-adv-x="1036" d="M924 174T872 112T741 10T565 -29Q419 -29 313 37T150 224T94 502Q94 680 151 811T312 1012T557 1083Q741 1083 840 972T940 633H300Q293 580 293 502Q293 367 337 266T454 111T606 57Q812
57 907 262L948 246Q924 174 872 112ZM747 774T726 859T660 994T549 1044Q486 1044 433 1004T344 880T297 672H743Q747 774 726 859ZM615 1538T706 1443T915 1290L899 1262Q788 1300 683 1355T514 1466Q462 1411 380 1356T211 1262L194 1290Q311 1348 402 1443T536
1642H573Q615 1538 706 1443Z" />
<glyph unicode="&#xeb;" glyph-name="edieresis" horiz-adv-x="1036" d="M924 174T872 112T741 10T565 -29Q419 -29 313 37T150 224T94 502Q94 680 151 811T312 1012T557 1083Q741 1083 840 972T940 633H300Q293 580 293 502Q293 367 337 266T454 111T606 57Q812
57 907 262L948 246Q924 174 872 112ZM747 774T726 859T660 994T549 1044Q486 1044 433 1004T344 880T297 672H743Q747 774 726 859ZM371 1522T398 1506T442 1462T459 1403Q459 1371 443 1344T399 1300T340 1284Q291 1284 256 1319T221 1403Q221 1434 237 1461T280
1505T340 1522Q371 1522 398 1506ZM805 1522T832 1506T876 1462T893 1403Q893 1371 877 1344T833 1300T774 1284Q725 1284 691 1319T656 1403Q656 1434 672 1461T715 1505T774 1522Q805 1522 832 1506Z" />
<glyph unicode="&#xec;" glyph-name="igrave" horiz-adv-x="600" d="M399 133T414 101T463 56T555 43V0Q367 8 307 8Q247 8 59 0V43Q117 43 150 56T199 101T215 190V831Q215 926 181 969T59 1012V1055Q123 1049 186 1049Q316 1049 399 1077V190Q399 133 414 101ZM560
1286T514 1329T395 1436T293 1538Q265 1575 265 1608Q265 1642 293 1665Q312 1680 337 1680Q381 1680 416 1634Q445 1596 481 1527T551 1393T639 1245L616 1227Q560 1286 514 1329Z" />
<glyph unicode="&#xed;" glyph-name="iacute" horiz-adv-x="600" d="M399 133T414 101T463 56T555 43V0Q367 8 307 8Q247 8 59 0V43Q117 43 150 56T199 101T215 190V831Q215 926 181 969T59 1012V1055Q123 1049 186 1049Q316 1049 399 1077V190Q399 133 414 101ZM206
1314T237 1370T312 1511T385 1634Q420 1680 463 1680Q488 1680 508 1665Q536 1642 536 1608Q536 1575 508 1538Q478 1500 419 1449T306 1348T184 1227L162 1245Q206 1314 237 1370Z" />
<glyph unicode="&#xee;" glyph-name="icircumflex" horiz-adv-x="600" d="M399 133T414 101T463 56T555 43V0Q367 8 307 8Q247 8 59 0V43Q117 43 150 56T199 101T215 190V831Q215 926 181 969T59 1012V1055Q123 1049 186 1049Q316 1049 399 1077V190Q399 133 414
101ZM605 1538T696 1443T905 1290L889 1262Q778 1300 673 1355T504 1466Q452 1411 370 1356T201 1262L184 1290Q301 1348 392 1443T526 1642H563Q605 1538 696 1443Z" />
<glyph unicode="&#xef;" glyph-name="idieresis" horiz-adv-x="600" d="M399 133T414 101T463 56T555 43V0Q367 8 307 8Q247 8 59 0V43Q117 43 150 56T199 101T215 190V831Q215 926 181 969T59 1012V1055Q123 1049 186 1049Q316 1049 399 1077V190Q399 133 414
101ZM361 1522T388 1506T432 1462T449 1403Q449 1371 433 1344T389 1300T330 1284Q281 1284 246 1319T211 1403Q211 1434 227 1461T270 1505T330 1522Q361 1522 388 1506ZM795 1522T822 1506T866 1462T883 1403Q883 1371 867 1344T823 1300T764 1284Q715 1284 681
1319T646 1403Q646 1434 662 1461T705 1505T764 1522Q795 1522 822 1506Z" />
<glyph unicode="&#xf0;" glyph-name="eth" horiz-adv-x="1135" d="M1020 1118T1020 618Q1020 407 955 261T784 43T553 -29Q417 -29 314 33T152 219T94 522Q94 663 146 792T299 1002T541 1083Q707 1083 786 977Q727 1220 568 1373L199 1192L180 1229L536 1402Q436
1488 266 1567L283 1602Q466 1530 602 1434L891 1575L909 1538L639 1407Q1020 1118 1020 618ZM666 12T745 152T825 618Q825 686 821 749Q801 917 728 978T555 1040Q436 1040 365 916T293 518Q293 342 326 229T416 64T543 12Q666 12 745 152Z" />
<glyph unicode="&#xf1;" glyph-name="ntilde" horiz-adv-x="1223" d="M450 966T541 1024T748 1083Q891 1083 965 1006Q1003 964 1019 903T1036 737V190Q1036 133 1051 101T1100 56T1192 43V0Q1004 8 946 8Q889 8 717 0V43Q768 43 796 56T838 101T852 190V782Q852
856 841 906T793 987T686 1018Q602 1018 537 969T435 835T399 645V190Q399 133 412 101T455 56T535 43V0Q363 8 305 8Q247 8 59 0V43Q117 43 150 56T199 101T215 190V831Q215 926 181 969T59 1012V1055Q123 1049 186 1049Q316 1049 399 1077V836Q450 966 541 1024ZM263
1470T327 1521T476 1573Q527 1573 564 1555T665 1487T785 1438Q878 1438 943 1546L972 1532Q941 1424 877 1373T730 1321Q677 1321 640 1340T538 1408T419 1458Q328 1458 261 1348L232 1362Q263 1470 327 1521Z" />
<glyph unicode="&#xf2;" glyph-name="ograve" horiz-adv-x="1122" d="M696 1083T800 1024T965 841T1026 526Q1026 336 966 212T801 30T561 -29Q426 -29 322 29T157 212T96 526Q96 716 156 840T321 1024T561 1083Q696 1083 800 1024ZM438 1042T367 916T295 526Q295
263 366 138T561 12Q684 12 755 137T827 526Q827 790 756 916T561 1042Q438 1042 367 916ZM582 1286T536 1329T417 1436T315 1538Q287 1575 287 1608Q287 1642 315 1665Q334 1680 359 1680Q403 1680 438 1634Q467 1596 503 1527T573 1393T661 1245L638 1227Q582
1286 536 1329Z" />
<glyph unicode="&#xf3;" glyph-name="oacute" horiz-adv-x="1122" d="M696 1083T800 1024T965 841T1026 526Q1026 336 966 212T801 30T561 -29Q426 -29 322 29T157 212T96 526Q96 716 156 840T321 1024T561 1083Q696 1083 800 1024ZM438 1042T367 916T295 526Q295
263 366 138T561 12Q684 12 755 137T827 526Q827 790 756 916T561 1042Q438 1042 367 916ZM484 1314T515 1370T590 1511T663 1634Q698 1680 741 1680Q766 1680 786 1665Q814 1642 814 1608Q814 1575 786 1538Q756 1500 697 1449T584 1348T462 1227L440 1245Q484
1314 515 1370Z" />
<glyph unicode="&#xf4;" glyph-name="ocircumflex" horiz-adv-x="1122" d="M696 1083T800 1024T965 841T1026 526Q1026 336 966 212T801 30T561 -29Q426 -29 322 29T157 212T96 526Q96 716 156 840T321 1024T561 1083Q696 1083 800 1024ZM438 1042T367 916T295
526Q295 263 366 138T561 12Q684 12 755 137T827 526Q827 790 756 916T561 1042Q438 1042 367 916ZM627 1538T718 1443T927 1290L911 1262Q800 1300 695 1355T526 1466Q474 1411 392 1356T223 1262L206 1290Q323 1348 414 1443T548 1642H585Q627 1538 718 1443Z"
/>
<glyph unicode="&#xf5;" glyph-name="otilde" horiz-adv-x="1122" d="M696 1083T800 1024T965 841T1026 526Q1026 336 966 212T801 30T561 -29Q426 -29 322 29T157 212T96 526Q96 716 156 840T321 1024T561 1083Q696 1083 800 1024ZM438 1042T367 916T295 526Q295
263 366 138T561 12Q684 12 755 137T827 526Q827 790 756 916T561 1042Q438 1042 367 916ZM203 1470T267 1521T416 1573Q467 1573 504 1555T605 1487T725 1438Q818 1438 883 1546L912 1532Q881 1424 817 1373T670 1321Q617 1321 580 1340T478 1408T359 1458Q268
1458 201 1348L172 1362Q203 1470 267 1521Z" />
<glyph unicode="&#xf6;" glyph-name="odieresis" horiz-adv-x="1122" d="M696 1083T800 1024T965 841T1026 526Q1026 336 966 212T801 30T561 -29Q426 -29 322 29T157 212T96 526Q96 716 156 840T321 1024T561 1083Q696 1083 800 1024ZM438 1042T367 916T295 526Q295
263 366 138T561 12Q684 12 755 137T827 526Q827 790 756 916T561 1042Q438 1042 367 916ZM383 1522T410 1506T454 1462T471 1403Q471 1371 455 1344T411 1300T352 1284Q303 1284 268 1319T233 1403Q233 1434 249 1461T292 1505T352 1522Q383 1522 410 1506ZM817
1522T844 1506T888 1462T905 1403Q905 1371 889 1344T845 1300T786 1284Q737 1284 703 1319T668 1403Q668 1434 684 1461T727 1505T786 1522Q817 1522 844 1506Z" />
<glyph unicode="&#xf7;" glyph-name="divide" horiz-adv-x="1329" d="M711 1135T744 1102T778 1022Q778 974 745 942T664 909Q617 909 584 941T551 1022Q551 1068 584 1101T664 1135Q711 1135 744 1102ZM150 696V758H1176V696H150ZM711 545T744 512T778 432Q778
385 745 351T664 317Q618 317 585 351T551 432Q551 479 584 512T664 545Q711 545 744 512Z" />
<glyph unicode="&#xf8;" glyph-name="oslash" horiz-adv-x="1120" d="M1026 812T1026 526Q1026 336 966 212T801 30T561 -29Q391 -29 276 60L133 -150L90 -121L238 94Q96 239 96 526Q96 716 156 840T321 1024T561 1083Q735 1083 850 990L995 1202L1034 1176L886
957Q1026 812 1026 526ZM699 1042T561 1042Q438 1042 367 916T295 526Q295 334 336 211L767 894Q699 1042 561 1042ZM427 12T561 12Q684 12 755 137T827 526Q827 715 788 837L359 153Q427 12 561 12Z" />
<glyph unicode="&#xf9;" glyph-name="ugrave" horiz-adv-x="1190" d="M989 126T1023 84T1145 41V-2Q1081 4 1018 4Q886 4 805 -25V217Q755 91 666 31T469 -29Q331 -29 256 49Q219 89 204 153T188 317V831Q188 926 154 969T33 1012V1055Q97 1049 160 1049Q289 1049
373 1077V272Q373 194 382 146T425 68T528 37Q607 37 670 86T769 220T805 408V831Q805 926 771 969T649 1012V1055Q713 1049 776 1049Q906 1049 989 1077V221Q989 126 1023 84ZM588 1286T542 1329T423 1436T321 1538Q293 1575 293 1608Q293 1642 321 1665Q340 1680
365 1680Q409 1680 444 1634Q473 1596 509 1527T579 1393T667 1245L644 1227Q588 1286 542 1329Z" />
<glyph unicode="&#xfa;" glyph-name="uacute" horiz-adv-x="1190" d="M989 126T1023 84T1145 41V-2Q1081 4 1018 4Q886 4 805 -25V217Q755 91 666 31T469 -29Q331 -29 256 49Q219 89 204 153T188 317V831Q188 926 154 969T33 1012V1055Q97 1049 160 1049Q289 1049
373 1077V272Q373 194 382 146T425 68T528 37Q607 37 670 86T769 220T805 408V831Q805 926 771 969T649 1012V1055Q713 1049 776 1049Q906 1049 989 1077V221Q989 126 1023 84ZM490 1314T521 1370T596 1511T669 1634Q704 1680 747 1680Q772 1680 792 1665Q820 1642
820 1608Q820 1575 792 1538Q762 1500 703 1449T590 1348T468 1227L446 1245Q490 1314 521 1370Z" />
<glyph unicode="&#xfb;" glyph-name="ucircumflex" horiz-adv-x="1190" d="M989 126T1023 84T1145 41V-2Q1081 4 1018 4Q886 4 805 -25V217Q755 91 666 31T469 -29Q331 -29 256 49Q219 89 204 153T188 317V831Q188 926 154 969T33 1012V1055Q97 1049 160 1049Q289
1049 373 1077V272Q373 194 382 146T425 68T528 37Q607 37 670 86T769 220T805 408V831Q805 926 771 969T649 1012V1055Q713 1049 776 1049Q906 1049 989 1077V221Q989 126 1023 84ZM633 1538T724 1443T933 1290L917 1262Q806 1300 701 1355T532 1466Q480 1411
398 1356T229 1262L212 1290Q329 1348 420 1443T554 1642H591Q633 1538 724 1443Z" />
<glyph unicode="&#xfc;" glyph-name="udieresis" horiz-adv-x="1190" d="M989 126T1023 84T1145 41V-2Q1081 4 1018 4Q886 4 805 -25V217Q755 91 666 31T469 -29Q331 -29 256 49Q219 89 204 153T188 317V831Q188 926 154 969T33 1012V1055Q97 1049 160 1049Q289
1049 373 1077V272Q373 194 382 146T425 68T528 37Q607 37 670 86T769 220T805 408V831Q805 926 771 969T649 1012V1055Q713 1049 776 1049Q906 1049 989 1077V221Q989 126 1023 84ZM389 1522T416 1506T460 1462T477 1403Q477 1371 461 1344T417 1300T358 1284Q309
1284 274 1319T239 1403Q239 1434 255 1461T298 1505T358 1522Q389 1522 416 1506ZM823 1522T850 1506T894 1462T911 1403Q911 1371 895 1344T851 1300T792 1284Q743 1284 709 1319T674 1403Q674 1434 690 1461T733 1505T792 1522Q823 1522 850 1506Z" />
<glyph unicode="&#xfd;" glyph-name="yacute" horiz-adv-x="1032" d="M792 1049T856 1049Q947 1049 1012 1055V1014Q971 1009 939 977T879 870L543 -10L473 -188Q434 -289 385 -332Q327 -385 225 -385Q164 -385 125 -353T86 -262Q86 -213 115 -184T195 -154Q240
-154 269 -179T299 -250Q299 -311 244 -342Q248 -344 256 -344Q369 -344 430 -184L503 3L131 897Q96 968 62 990T-8 1012V1055Q88 1042 193 1042Q281 1042 459 1055V1012Q409 1012 381 1009T335 990T316 941Q316 904 342 840L589 228L815 821Q837 881 837 915Q837
963 801 986T684 1014V1055Q792 1049 856 1049ZM437 1314T468 1370T543 1511T616 1634Q651 1680 694 1680Q719 1680 739 1665Q767 1642 767 1608Q767 1575 739 1538Q709 1500 650 1449T537 1348T415 1227L393 1245Q437 1314 468 1370Z" />
<glyph unicode="&#xfe;" glyph-name="thorn" horiz-adv-x="1145" d="M386 967T472 1025T668 1083Q777 1083 863 1024T999 850T1049 575Q1049 418 999 281T844 57T580 -29Q502 -29 439 1T340 82V-180Q340 -263 389 -295T537 -328V-371Q511 -370 420 -366T242 -362Q177
-362 108 -366T20 -371V-328Q71 -328 100 -317T142 -278T156 -201V1358Q156 1453 122 1495T0 1538V1581Q65 1575 127 1575Q259 1575 340 1604V861Q386 967 472 1025ZM370 89T424 54T557 18Q850 18 850 547Q850 1022 612 1022Q519 1022 446 956T340 763V150Q370
89 424 54Z" />
<glyph unicode="&#xff;" glyph-name="ydieresis" horiz-adv-x="1032" d="M792 1049T856 1049Q947 1049 1012 1055V1014Q971 1009 939 977T879 870L543 -10L473 -188Q434 -289 385 -332Q327 -385 225 -385Q164 -385 125 -353T86 -262Q86 -213 115 -184T195 -154Q240
-154 269 -179T299 -250Q299 -311 244 -342Q248 -344 256 -344Q369 -344 430 -184L503 3L131 897Q96 968 62 990T-8 1012V1055Q88 1042 193 1042Q281 1042 459 1055V1012Q409 1012 381 1009T335 990T316 941Q316 904 342 840L589 228L815 821Q837 881 837 915Q837
963 801 986T684 1014V1055Q792 1049 856 1049ZM336 1522T363 1506T407 1462T424 1403Q424 1371 408 1344T364 1300T305 1284Q256 1284 221 1319T186 1403Q186 1434 202 1461T245 1505T305 1522Q336 1522 363 1506ZM770 1522T797 1506T841 1462T858 1403Q858 1371
842 1344T798 1300T739 1284Q690 1284 656 1319T621 1403Q621 1434 637 1461T680 1505T739 1522Q770 1522 797 1506Z" />
<glyph unicode="&#x2013;" glyph-name="endash" horiz-adv-x="1169" d="M121 510V592H1049V510H121Z" />
<glyph unicode="&#x2014;" glyph-name="emdash" horiz-adv-x="1765" d="M121 510V592H1645V510H121Z" />
<glyph unicode="&#x2018;" glyph-name="quoteleft" horiz-adv-x="508" d="M278 1415T232 1358T186 1241Q186 1216 192 1198Q227 1225 268 1225Q324 1225 361 1190T399 1094Q399 1038 361 1001T268 963Q189 963 147 1028Q112 1082 112 1163Q112 1266 164 1347T323
1479L342 1442Q278 1415 232 1358Z" />
<glyph unicode="&#x2019;" glyph-name="quoteright" horiz-adv-x="502" d="M232 1026T278 1083T324 1200Q324 1225 318 1243Q283 1216 242 1216Q186 1216 149 1251T111 1347Q111 1403 149 1440T242 1478Q321 1478 363 1413Q398 1359 398 1278Q398 1175 346 1094T187
962L168 999Q232 1026 278 1083Z" />
<glyph unicode="&#x201a;" glyph-name="quotesinglbase" horiz-adv-x="535" d="M248 -219T294 -162T340 -45Q340 -20 334 -2Q299 -29 258 -29Q202 -29 165 6T127 102Q127 158 165 195T258 233Q337 233 379 168Q414 114 414 33Q414 -70 362 -151T203 -283L184 -246Q248
-219 294 -162Z" />
<glyph unicode="&#x201c;" glyph-name="quotedblleft" horiz-adv-x="856" d="M626 1415T580 1358T534 1241Q534 1216 540 1198Q575 1225 616 1225Q672 1225 709 1190T747 1094Q747 1038 709 1001T616 963Q537 963 495 1028Q460 1082 460 1163Q460 1266 512 1347T671
1479L690 1442Q626 1415 580 1358ZM278 1415T232 1358T186 1241Q186 1216 192 1198Q226 1225 268 1225Q323 1225 361 1190T399 1094Q399 1057 381 1027T333 980T268 963Q189 963 147 1028Q112 1082 112 1163Q112 1266 164 1347T323 1479L342 1442Q278 1415 232
1358Z" />
<glyph unicode="&#x201d;" glyph-name="quotedblright" horiz-adv-x="850" d="M232 1026T278 1083T324 1200Q324 1225 318 1243Q283 1216 242 1216Q186 1216 149 1251T111 1347Q111 1403 149 1440T242 1478Q321 1478 363 1413Q398 1359 398 1278Q398 1175 346
1094T187 962L168 999Q232 1026 278 1083ZM580 1026T626 1083T672 1200Q672 1225 666 1243Q632 1216 590 1216Q535 1216 497 1251T459 1347Q459 1384 477 1414T525 1461T590 1478Q669 1478 711 1413Q746 1359 746 1278Q746 1175 694 1094T535 962L516 999Q580 1026
626 1083Z" />
<glyph unicode="&#x201e;" glyph-name="quotedblbase" horiz-adv-x="883" d="M248 -219T294 -162T340 -45Q340 -20 334 -2Q299 -29 258 -29Q202 -29 165 6T127 102Q127 158 165 195T258 233Q337 233 379 168Q414 114 414 33Q414 -70 362 -151T203 -283L184 -246Q248
-219 294 -162ZM596 -219T642 -162T688 -45Q688 -20 682 -2Q648 -29 606 -29Q551 -29 513 6T475 102Q475 139 493 169T541 216T606 233Q685 233 727 168Q762 114 762 33Q762 -70 710 -151T551 -283L532 -246Q596 -219 642 -162Z" />
<glyph unicode="&#x2022;" glyph-name="bullet" horiz-adv-x="903" d="M530 844T597 805T703 698T743 551Q743 471 704 405T597 299T451 260Q371 260 305 299T199 404T160 551Q160 631 199 698T304 804T451 844Q530 844 597 805Z" />
<glyph unicode="&#x2039;" glyph-name="guilsinglleft" horiz-adv-x="670" d="M500 878T416 756T219 535Q329 439 413 310T571 -14L537 -29Q449 167 337 303T66 526V528Q224 616 336 751T537 1083L571 1069Q500 878 416 756Z" />
<glyph unicode="&#x203a;" glyph-name="guilsinglright" horiz-adv-x="670" d="M221 887T333 752T604 528V526Q446 439 334 303T133 -29L98 -14Q170 177 253 299T451 520Q341 616 257 745T98 1069L133 1083Q221 887 333 752Z" />
</font>
</defs>
</svg>
